<?xml version="1.0" standalone="no"?>
<!DOCTYPE svg PUBLIC "-//W3C//DTD SVG 1.1//EN" "http://www.w3.org/Graphics/SVG/1.1/DTD/svg11.dtd" >
<svg xmlns="http://www.w3.org/2000/svg">
<metadata></metadata>
<defs>
<font id="droid_sansregular" horiz-adv-x="1182" >
<font-face units-per-em="2048" ascent="1638" descent="-410" />
<missing-glyph horiz-adv-x="532" />
<glyph unicode="&#xd;" horiz-adv-x="1044" />
<glyph unicode=" "  horiz-adv-x="532" />
<glyph unicode="&#x09;" horiz-adv-x="532" />
<glyph unicode="&#xa0;" horiz-adv-x="532" />
<glyph unicode="!" horiz-adv-x="551" d="M336 414h-121l-51 1048h223zM147 111q0 38 10 64.5t27 43t40 24t50 7.5q26 0 49.5 -7.5t40.5 -24t27 -43t10 -64.5q0 -37 -10 -63.5t-27 -43.5t-40.5 -25t-49.5 -8q-27 0 -50 8t-40 25t-27 43.5t-10 63.5z" />
<glyph unicode="&#x22;" horiz-adv-x="823" d="M330 1462l-41 -528h-115l-41 528h197zM690 1462l-41 -528h-114l-41 528h196z" />
<glyph unicode="#" horiz-adv-x="1323" d="M983 893l-63 -328h280v-137h-307l-82 -428h-147l84 428h-291l-82 -428h-144l78 428h-258v137h285l65 328h-274v137h299l82 432h147l-82 -432h293l84 432h144l-84 -432h262v-137h-289zM483 565h291l64 328h-291z" />
<glyph unicode="$" horiz-adv-x="1128" d="M985 446q0 -70 -25 -127t-71.5 -99t-113 -69.5t-150.5 -39.5v-230h-138v221q-50 0 -101 4.5t-99 13.5t-90 22t-74 30v172q33 -16 76.5 -32.5t91.5 -29.5t98.5 -21.5t97.5 -8.5v434q-89 30 -154.5 63t-108.5 75.5t-64 97.5t-21 129q0 67 24.5 122.5t70 97t110 68 t143.5 35.5v180h138v-176q100 -5 184.5 -26t151.5 -52l-66 -145q-56 25 -126 45.5t-144 26.5v-422q88 -31 155.5 -64t113 -74.5t68.5 -95t23 -125.5zM809 446q0 33 -10 60.5t-31.5 50t-56.5 41.5t-86 37v-373q93 14 138.5 63t45.5 121zM315 1049q0 -36 8.5 -64.5t28.5 -52 t53 -42.5t82 -36v369q-89 -16 -130.5 -60.5t-41.5 -113.5z" />
<glyph unicode="%" horiz-adv-x="1690" d="M250 1026q0 -165 35.5 -247.5t115.5 -82.5q156 0 156 330q0 328 -156 328q-80 0 -115.5 -81.5t-35.5 -246.5zM705 1026q0 -108 -18 -194t-55 -145t-94.5 -90.5t-136.5 -31.5q-73 0 -129 31.5t-94 90.5t-57 145t-19 194t17.5 193t54 143.5t93 89.5t134.5 31 q75 0 131.5 -31t95 -89.5t58 -143.5t19.5 -193zM1133 440q0 -165 35.5 -247t115.5 -82q156 0 156 329q0 328 -156 328q-80 0 -115.5 -81.5t-35.5 -246.5zM1587 440q0 -108 -17.5 -193.5t-54.5 -144.5t-94.5 -90.5t-136.5 -31.5q-74 0 -130 31.5t-93.5 90.5t-56.5 144.5 t-19 193.5t17.5 193t54 143.5t93 89.5t134.5 31q75 0 131.5 -31t94.5 -89.5t57.5 -143.5t19.5 -193zM1331 1462l-811 -1462h-158l812 1462h157z" />
<glyph unicode="&#x26;" horiz-adv-x="1438" d="M422 1165q0 -34 8 -66.5t24.5 -65t42.5 -66t62 -70.5q59 35 102 66t71 63t42 67t14 76q0 36 -12.5 66.5t-36 52.5t-56.5 34.5t-75 12.5q-86 0 -136 -44.5t-50 -125.5zM557 141q58 0 107 11.5t91 31.5t78 47t68 58l-387 407q-52 -33 -92 -64.5t-67.5 -67.5t-41.5 -78.5 t-14 -98.5q0 -54 17.5 -99.5t50.5 -78t81 -50.5t109 -18zM109 381q0 78 20 139t58.5 111t94 93t126.5 85q-31 36 -61 74.5t-52.5 82t-36.5 93t-14 106.5q0 75 25 134.5t72 101t116 63t157 21.5q83 0 148.5 -21.5t111 -63t69.5 -101t24 -134.5q0 -64 -25 -118.5t-67 -101 t-96.5 -86t-114.5 -75.5l352 -372q27 29 48.5 59t38.5 64t30.5 73t23.5 86h184q-15 -66 -35.5 -121.5t-47 -104.5t-59 -91.5t-71.5 -83.5l277 -293h-225l-168 172q-49 -45 -97 -80.5t-102 -60t-116 -38t-140 -13.5q-105 0 -188.5 26.5t-141 78t-88 126t-30.5 170.5z" />
<glyph unicode="'" horiz-adv-x="463" d="M330 1462l-41 -528h-115l-41 528h197z" />
<glyph unicode="(" horiz-adv-x="616" d="M82 561q0 125 18 246.5t55 236t93.5 220t134.5 198.5h172q-140 -193 -212.5 -424t-72.5 -475q0 -119 18.5 -237t54 -231t88.5 -219t122 -200h-170q-78 90 -134.5 193t-93.5 215.5t-55 232.5t-18 244z" />
<glyph unicode=")" horiz-adv-x="616" d="M535 561q0 -124 -18 -244t-55.5 -232.5t-94 -215.5t-134.5 -193h-170q69 94 122 200t89 219t54 231t18 237q0 244 -72 475t-213 424h172q78 -93 134.5 -198.5t94 -220t55.5 -236t18 -246.5z" />
<glyph unicode="*" horiz-adv-x="1128" d="M664 1556l-43 -393l397 111l26 -193l-378 -28l245 -326l-178 -96l-176 358l-158 -358l-184 96l242 326l-375 28l29 193l391 -111l-43 393h205z" />
<glyph unicode="+" horiz-adv-x="1128" d="M489 647h-387v150h387v389h150v-389h387v-150h-387v-385h-150v385z" />
<glyph unicode="," horiz-adv-x="512" d="M362 238l15 -23q-14 -54 -33.5 -115t-43 -123t-49 -123.5t-50.5 -117.5h-138q15 61 29.5 127t28 131.5t24.5 128t19 115.5h198z" />
<glyph unicode="-" horiz-adv-x="659" d="M82 465v168h496v-168h-496z" />
<glyph unicode="." horiz-adv-x="549" d="M147 111q0 38 10 64.5t27 43t40 24t50 7.5q26 0 49.5 -7.5t40.5 -24t27 -43t10 -64.5q0 -37 -10 -63.5t-27 -43.5t-40.5 -25t-49.5 -8q-27 0 -50 8t-40 25t-27 43.5t-10 63.5z" />
<glyph unicode="/" horiz-adv-x="764" d="M743 1462l-544 -1462h-179l545 1462h178z" />
<glyph unicode="0" horiz-adv-x="1128" d="M1032 733q0 -177 -25.5 -317t-82 -237t-145.5 -148t-216 -51q-118 0 -205.5 51t-145 148t-86 237t-28.5 317t25.5 317t81 236.5t144 147.5t214.5 51q119 0 207 -50.5t146 -147t87 -236.5t29 -318zM283 733q0 -150 15 -262t48 -186.5t86.5 -112t130.5 -37.5t131 37 t88.5 111t50 186.5t15.5 263.5q0 150 -15.5 262t-50 186t-88.5 111t-131 37t-130.5 -37t-86.5 -111t-48 -186t-15 -262z" />
<glyph unicode="1" horiz-adv-x="1128" d="M711 0h-176v913q0 43 0.5 92t2 97.5t3 93t2.5 78.5q-17 -18 -30 -31t-26.5 -25t-28.5 -25.5t-36 -31.5l-148 -121l-96 123l383 299h150v-1462z" />
<glyph unicode="2" horiz-adv-x="1128" d="M1008 0h-912v156l350 381q75 81 134 148t100.5 131t63.5 128.5t22 140.5q0 59 -17 104t-48.5 76.5t-74.5 47.5t-96 16q-95 0 -171.5 -38.5t-145.5 -98.5l-102 119q40 36 86 67.5t99 54.5t112 36.5t124 13.5q96 0 173.5 -27t131.5 -77.5t83.5 -123t29.5 -163.5 q0 -85 -26.5 -162t-73 -151.5t-111 -149.5t-139.5 -156l-281 -299v-8h689v-166z" />
<glyph unicode="3" horiz-adv-x="1128" d="M961 1120q0 -73 -23 -133t-64.5 -104t-99.5 -72.5t-129 -40.5v-6q177 -22 269 -112.5t92 -235.5q0 -96 -32.5 -176t-98.5 -138t-167 -90t-239 -32q-109 0 -205.5 17t-181.5 62v170q87 -46 188.5 -71t194.5 -25q92 0 159 20t110.5 57t64 91t20.5 121q0 68 -26.5 116.5 t-75.5 80t-119.5 46.5t-159.5 15h-133v151h133q81 0 144 20t105.5 57t64.5 88t22 112q0 52 -18 93t-51 69.5t-79 43.5t-102 15q-107 0 -188.5 -33.5t-155.5 -87.5l-92 125q38 31 84.5 58t101.5 47.5t117.5 32.5t132.5 12q108 0 189.5 -27t136.5 -75.5t83 -115t28 -145.5z " />
<glyph unicode="4" horiz-adv-x="1128" d="M1087 328h-213v-328h-176v328h-675v159l663 983h188v-976h213v-166zM698 494v356q0 56 1.5 117.5t3.5 120t4.5 109.5t3.5 85h-9q-7 -20 -17.5 -44.5t-23 -49t-25.5 -47.5t-24 -39l-411 -608h497z" />
<glyph unicode="5" horiz-adv-x="1128" d="M545 897q99 0 184.5 -27.5t149 -81.5t99.5 -134t36 -185q0 -114 -34 -205t-101 -154t-165.5 -96.5t-226.5 -33.5q-51 0 -100.5 5t-95 14.5t-86.5 24.5t-74 35v172q33 -23 77.5 -41t93.5 -30t98.5 -18.5t91.5 -6.5q79 0 141 18.5t105 57.5t66 98t23 140q0 143 -88 218.5 t-256 75.5q-27 0 -58.5 -2.5t-63 -6.5t-60 -8.5t-49.5 -8.5l-90 57l55 688h690v-166h-532l-39 -419q32 6 84.5 13t124.5 7z" />
<glyph unicode="6" horiz-adv-x="1128" d="M113 625q0 105 10.5 209t37 199.5t72.5 177.5t117 142.5t170 95t232 34.5q19 0 42 -1t46.5 -3.5t45 -6t38.5 -8.5v-155q-35 12 -79 18t-87 6q-90 0 -158.5 -21.5t-118.5 -60.5t-83.5 -93t-54.5 -119.5t-31 -139.5t-13 -154h12q20 36 48.5 67.5t66.5 54t85.5 35.5 t106.5 13q95 0 172 -29.5t131 -86.5t83.5 -139.5t29.5 -188.5q0 -114 -31 -205t-89 -154.5t-140 -97.5t-184 -34q-100 0 -187.5 39t-151.5 119t-101 201t-37 286zM588 133q60 0 109.5 20.5t85.5 62t55.5 105t19.5 150.5q0 70 -16.5 125.5t-49.5 94.5t-82.5 60t-115.5 21 q-67 0 -122.5 -23.5t-94.5 -61t-60.5 -85.5t-21.5 -96q0 -67 18.5 -133.5t55 -119.5t91.5 -86.5t128 -33.5z" />
<glyph unicode="7" horiz-adv-x="1128" d="M281 0l563 1296h-754v166h940v-145l-555 -1317h-194z" />
<glyph unicode="8" horiz-adv-x="1128" d="M565 1485q84 0 158.5 -22t131 -66t89.5 -110t33 -154q0 -67 -20 -121t-55 -97.5t-83 -78t-104 -62.5q58 -31 113.5 -69t99 -85.5t70 -106.5t26.5 -132q0 -92 -33.5 -166.5t-94 -126.5t-145 -80t-186.5 -28q-110 0 -195.5 27t-144 77.5t-89 123.5t-30.5 165q0 75 22.5 135 t60.5 108t90 85t110 65q-49 31 -92 67.5t-74.5 81.5t-50 99.5t-18.5 120.5q0 87 33.5 152.5t90.5 109.5t131.5 66t155.5 22zM285 371q0 -53 16 -97.5t50 -76t86 -49t124 -17.5q70 0 123.5 17.5t89.5 50t54 78.5t18 102q0 52 -19.5 94t-56 78t-87.5 68t-114 63l-30 14 q-126 -60 -190 -137.5t-64 -187.5zM563 1333q-106 0 -168.5 -53t-62.5 -154q0 -57 17.5 -98t48.5 -73t74.5 -57.5t94.5 -49.5q48 22 90.5 48t74 59t49.5 75t18 96q0 101 -63 154t-173 53z" />
<glyph unicode="9" horiz-adv-x="1128" d="M1028 838q0 -105 -10.5 -209.5t-37 -199.5t-72.5 -177.5t-117 -142.5t-170 -94.5t-232 -34.5q-19 0 -42 1t-46 3.5t-45 5.5t-39 8v156q35 -13 79 -19t87 -6q135 0 222 47t138 127.5t72.5 187.5t26.5 226h-13q-20 -36 -48 -67t-66 -54t-86 -36t-107 -13q-95 0 -172 29.5 t-131 86.5t-83.5 139.5t-29.5 188.5q0 114 31.5 205.5t89 155t140 97.5t184.5 34q101 0 188 -39t151 -119t101 -201.5t37 -285.5zM553 1329q-60 0 -109.5 -20t-85.5 -62t-55.5 -105.5t-19.5 -150.5q0 -70 16.5 -125.5t49.5 -94.5t82.5 -60t115.5 -21q68 0 123 23.5t94 61 t60.5 85.5t21.5 96q0 67 -18.5 133.5t-55 120t-91.5 86.5t-128 33z" />
<glyph unicode=":" horiz-adv-x="549" d="M147 111q0 38 10 64.5t27 43t40 24t50 7.5q26 0 49.5 -7.5t40.5 -24t27 -43t10 -64.5q0 -37 -10 -63.5t-27 -43.5t-40.5 -25t-49.5 -8q-27 0 -50 8t-40 25t-27 43.5t-10 63.5zM147 987q0 39 10 65.5t27 43t40 23.5t50 7q26 0 49.5 -7t40.5 -23.5t27 -43t10 -65.5 q0 -37 -10 -63t-27 -43t-40.5 -25t-49.5 -8q-27 0 -50 8t-40 25t-27 43t-10 63z" />
<glyph unicode=";" horiz-adv-x="549" d="M362 238l15 -23q-14 -54 -33.5 -115t-43 -123t-49 -123.5t-50.5 -117.5h-138q15 61 29.5 127t28 131.5t24.5 128t19 115.5h198zM147 987q0 39 10 65.5t27 43t40 23.5t50 7q26 0 49.5 -7t40.5 -23.5t27 -43t10 -65.5q0 -37 -10 -63t-27 -43t-40.5 -25t-49.5 -8 q-27 0 -50 8t-40 25t-27 43t-10 63z" />
<glyph unicode="&#x3c;" horiz-adv-x="1128" d="M1026 238l-924 424v102l924 481v-160l-735 -364l735 -322v-161z" />
<glyph unicode="=" horiz-adv-x="1128" d="M102 852v149h924v-149h-924zM102 442v150h924v-150h-924z" />
<glyph unicode="&#x3e;" horiz-adv-x="1128" d="M102 399l736 322l-736 364v160l924 -481v-102l-924 -424v161z" />
<glyph unicode="?" horiz-adv-x="872" d="M281 414v37q0 57 7.5 103t27 86t52.5 78.5t83 80.5q48 41 82 74.5t55.5 68t32 74t10.5 92.5q0 48 -15 87.5t-43.5 68t-71 44t-98.5 15.5q-83 0 -158 -26t-145 -60l-63 145q81 42 175 71.5t191 29.5q93 0 167.5 -25.5t126.5 -73.5t80 -117.5t28 -156.5q0 -67 -13.5 -119.5 t-40.5 -97.5t-67 -87t-94 -89q-52 -45 -85 -78.5t-52 -65t-26 -64.5t-7 -77v-18h-139zM233 111q0 38 10 64.5t27 43t40 24t50 7.5q26 0 49.5 -7.5t40.5 -24t27 -43t10 -64.5q0 -37 -10 -63.5t-27 -43.5t-40.5 -25t-49.5 -8q-27 0 -50 8t-40 25t-27 43.5t-10 63.5z" />
<glyph unicode="@" horiz-adv-x="1774" d="M1665 731q0 -62 -9.5 -124.5t-28 -119t-47 -105t-66.5 -84.5t-86.5 -56.5t-106.5 -20.5q-45 0 -81.5 15t-62.5 40t-42.5 57.5t-22.5 67.5h-4q-18 -37 -45 -70t-62.5 -57.5t-80 -38.5t-97.5 -14q-77 0 -136.5 28t-100.5 78.5t-62.5 121.5t-21.5 157q0 101 29.5 185t85 145 t134.5 95t177 34q45 0 90 -4t86 -11t75.5 -15.5t57.5 -16.5l-23 -416q-1 -22 -1.5 -35.5t-0.5 -21.5v-12v-7q0 -53 10.5 -87t27.5 -54t38.5 -27.5t44.5 -7.5q46 0 81 30.5t58.5 82.5t35.5 122t12 148q0 142 -43 252.5t-119 186.5t-180.5 115.5t-227.5 39.5 q-169 0 -298 -55.5t-216.5 -155t-132.5 -236t-45 -298.5q0 -151 39.5 -268t116 -197t190 -121t260.5 -41q61 0 120.5 7t115 19t105.5 27.5t93 32.5v-141q-86 -38 -194 -60t-238 -22q-179 0 -319.5 51t-238 148.5t-148.5 238t-51 319.5q0 188 59 350.5t168.5 281.5t265 187 t348.5 68q156 0 287 -50.5t226.5 -145t148.5 -230t53 -305.5zM662 602q0 -133 50.5 -192.5t135.5 -59.5q55 0 94 22.5t64 64t38 99t17 126.5l14 253q-28 8 -66.5 14.5t-80.5 6.5q-74 0 -124.5 -29t-82 -76t-45.5 -107t-14 -122z" />
<glyph unicode="A" horiz-adv-x="1245" d="M1055 0l-160 453h-545l-162 -453h-188l537 1468h170l538 -1468h-190zM836 618l-148 424q-6 18 -14.5 44t-17.5 56t-18 62.5t-17 63.5q-7 -31 -16 -64t-18 -63.5t-17.5 -56t-14.5 -42.5l-145 -424h426z" />
<glyph unicode="B" horiz-adv-x="1272" d="M199 1462h399q128 0 225.5 -19.5t163 -63t98.5 -114t33 -173.5q0 -62 -19.5 -116t-56.5 -95t-91.5 -68.5t-123.5 -36.5v-10q69 -12 129.5 -34.5t105.5 -62t71 -99.5t26 -146q0 -100 -32.5 -178.5t-94 -133t-149.5 -83.5t-199 -29h-485v1462zM385 842h244q84 0 141 15 t92 44.5t50.5 74t15.5 103.5q0 120 -77 172t-243 52h-223v-461zM385 686v-528h266q88 0 147.5 20t96 56t52.5 86.5t16 111.5q0 56 -16.5 103t-54 80.5t-99.5 52t-154 18.5h-254z" />
<glyph unicode="C" horiz-adv-x="1235" d="M793 1319q-107 0 -194 -40.5t-148.5 -116.5t-95 -185t-33.5 -246q0 -141 29.5 -250.5t88.5 -184.5t147 -114t206 -39q89 0 169 17.5t158 40.5v-162q-39 -15 -78 -26.5t-81.5 -18.5t-91 -10.5t-107.5 -3.5q-164 0 -284 54t-198.5 153t-116.5 238t-38 308q0 166 43.5 304 t128 237t209.5 154t287 55q108 0 206 -22t177 -64l-78 -156q-63 32 -137 55t-168 23z" />
<glyph unicode="D" horiz-adv-x="1401" d="M1276 745q0 -185 -48 -324.5t-139 -233t-223.5 -140.5t-300.5 -47h-366v1462h407q153 0 277 -46t211 -136.5t134.5 -224.5t47.5 -310zM1079 739q0 146 -33 252.5t-96 175.5t-155 102.5t-209 33.5h-201v-1143h162q264 0 398 146t134 433z" />
<glyph unicode="E" horiz-adv-x="1081" d="M958 0h-759v1462h759v-164h-573v-452h535v-162h-535v-520h573v-164z" />
<glyph unicode="F" horiz-adv-x="1006" d="M385 0h-186v1462h759v-164h-573v-516h535v-164h-535v-618z" />
<glyph unicode="G" horiz-adv-x="1413" d="M782 772h484v-717q-55 -18 -111 -32t-115 -23.5t-124 -14.5t-140 -5q-157 0 -278 52.5t-204 150t-126 237t-43 313.5q0 172 47.5 311t138.5 236.5t224.5 150t304.5 52.5q111 0 213 -22t190 -64l-72 -162q-36 17 -77.5 32t-85.5 26.5t-90.5 18.5t-92.5 7 q-122 0 -216 -40.5t-157.5 -116.5t-96.5 -185t-33 -246q0 -130 27.5 -238t87.5 -186t155 -121t229 -43q44 0 80.5 2.5t67.5 6.5t58.5 9.5t53.5 10.5v436h-299v164z" />
<glyph unicode="H" horiz-adv-x="1436" d="M1237 0h-186v682h-666v-682h-186v1462h186v-616h666v616h186v-1462z" />
<glyph unicode="I" horiz-adv-x="694" d="M612 0h-530v102l172 41v1176l-172 41v102h530v-102l-172 -41v-1176l172 -41v-102z" />
<glyph unicode="J" horiz-adv-x="555" d="M-29 -389q-51 0 -89 6.5t-66 17.5v160q34 -9 73 -14.5t84 -5.5q37 0 74.5 9.5t68 34.5t49.5 69t19 112v1462h187v-1442q0 -105 -29.5 -182t-82 -127.5t-126 -75t-162.5 -24.5z" />
<glyph unicode="K" horiz-adv-x="1186" d="M1186 0h-211l-451 698l-139 -114v-584h-186v1462h186v-731l121 168l452 563h209l-520 -637z" />
<glyph unicode="L" horiz-adv-x="1006" d="M199 0v1462h186v-1296h573v-166h-759z" />
<glyph unicode="M" horiz-adv-x="1782" d="M803 0l-443 1280h-8q6 -74 10 -147q4 -63 6.5 -132.5t2.5 -126.5v-874h-172v1462h276l412 -1192h6l414 1192h276v-1462h-186v887q0 52 2 119t5 128q4 71 7 144h-8l-447 -1278h-153z" />
<glyph unicode="N" horiz-adv-x="1493" d="M1294 0h-215l-719 1210h-8q6 -77 10 -153q4 -65 6.5 -136t2.5 -128v-793h-172v1462h213l716 -1204h7q-3 76 -7 150q-1 32 -2.5 65.5l-3 67t-2 64.5t-0.5 57v800h174v-1462z" />
<glyph unicode="O" horiz-adv-x="1520" d="M1393 733q0 -169 -40.5 -308t-120.5 -238t-198.5 -153t-273.5 -54q-163 0 -282.5 54t-198 153t-116.5 238.5t-38 309.5t38 308.5t117 236.5t199 151.5t283 53.5q155 0 272.5 -53.5t197.5 -152t120.5 -237t40.5 -309.5zM322 733q0 -137 26 -246.5t79.5 -186t136 -117 t196.5 -40.5t196.5 40.5t136 117t78.5 186t25 246.5q0 138 -25 247t-78 184.5t-135 116t-196 40.5t-197 -40.5t-137 -116t-80 -184.5t-26 -247z" />
<glyph unicode="P" horiz-adv-x="1180" d="M1075 1034q0 -91 -27.5 -175t-90.5 -148.5t-166.5 -103t-255.5 -38.5h-150v-569h-186v1462h362q134 0 231 -28.5t160 -83t93 -134.5t30 -182zM385 727h129q93 0 162.5 16t115 51.5t68.5 92t23 137.5q0 142 -82 210.5t-256 68.5h-160v-576z" />
<glyph unicode="Q" horiz-adv-x="1518" d="M1393 733q0 -131 -24.5 -244t-72 -203.5t-118.5 -156.5t-164 -104q43 -94 111.5 -165.5t158.5 -131.5l-121 -142q-103 73 -189.5 172t-137.5 226q-17 -2 -37.5 -3t-38.5 -1q-163 0 -282.5 54t-198 153t-116.5 238.5t-38 309.5t38 308.5t117 236.5t199 151.5t283 53.5 q155 0 272.5 -53.5t197.5 -152t120.5 -237t40.5 -309.5zM322 733q0 -137 26 -246.5t79.5 -186t136 -117t196.5 -40.5t196.5 40.5t136 117t78.5 186t25 246.5q0 138 -25 247t-78 184.5t-135 116t-196 40.5t-197 -40.5t-137 -116t-80 -184.5t-26 -247z" />
<glyph unicode="R" horiz-adv-x="1208" d="M385 604v-604h-186v1462h356q266 0 393 -103t127 -312q0 -87 -24.5 -152t-65 -111.5t-92.5 -77.5t-107 -51l398 -655h-219l-351 604h-229zM385 762h164q90 0 153 17.5t103.5 52t59 86t18.5 120.5q0 72 -20.5 122t-62 82t-105 46.5t-150.5 14.5h-160v-541z" />
<glyph unicode="S" horiz-adv-x="1063" d="M969 391q0 -97 -34.5 -173.5t-98.5 -129.5t-156 -80.5t-207 -27.5q-111 0 -207.5 17.5t-161.5 51.5v178q34 -16 77.5 -31.5t91.5 -27.5t99 -19.5t101 -7.5q160 0 236.5 60t76.5 172q0 54 -14.5 94t-51 73.5t-97.5 65t-154 68.5q-89 35 -154.5 76.5t-108 93.5t-63 118 t-20.5 150q0 88 32 157t90 116.5t138.5 72.5t177.5 25q119 0 214 -22.5t169 -57.5l-67 -156q-65 29 -147.5 50.5t-170.5 21.5q-122 0 -189 -56.5t-67 -152.5q0 -57 15 -98.5t50 -75t92.5 -63t141.5 -62.5q91 -36 159.5 -74t114.5 -86t69.5 -111t23.5 -149z" />
<glyph unicode="T" horiz-adv-x="1063" d="M625 0h-187v1298h-418v164h1022v-164h-417v-1298z" />
<glyph unicode="U" horiz-adv-x="1430" d="M1245 1464v-948q0 -114 -33 -212t-99.5 -170t-167 -113t-236.5 -41q-128 0 -226 38.5t-164.5 109.5t-100.5 170.5t-34 221.5v942h187v-952q0 -175 86.5 -271t261.5 -96q89 0 153 27t105 76t61 117t21 149v952h186z" />
<glyph unicode="V" horiz-adv-x="1163" d="M965 1462h198l-489 -1462h-187l-487 1462h197l295 -927q29 -91 50 -175.5t38 -158.5q15 74 38 158.5t54 181.5z" />
<glyph unicode="W" horiz-adv-x="1810" d="M809 1462h197l229 -856q15 -56 29.5 -112t27 -108.5t22 -99.5t15.5 -85q4 38 10 83t14 94.5t17.5 101t20.5 100.5l200 882h199l-367 -1462h-188l-254 938q-14 51 -27 105t-24 101q-12 55 -23 107q-11 -51 -22 -106q-10 -47 -22.5 -103t-26.5 -110l-242 -932h-188 l-386 1462h197l223 -889q12 -46 22 -95.5t18.5 -98.5t15.5 -94.5t12 -83.5q5 37 12.5 86t17.5 103t21.5 109.5t24.5 104.5z" />
<glyph unicode="X" horiz-adv-x="1120" d="M1120 0h-211l-354 635l-367 -635h-188l453 764l-422 698h198l332 -559l334 559h190l-421 -692z" />
<glyph unicode="Y" horiz-adv-x="1079" d="M539 723l340 739h200l-446 -893v-569h-187v559l-446 903h203z" />
<glyph unicode="Z" horiz-adv-x="1104" d="M1022 0h-940v145l711 1151h-691v166h899v-145l-710 -1151h731v-166z" />
<glyph unicode="[" horiz-adv-x="621" d="M569 -324h-405v1786h405v-149h-223v-1487h223v-150z" />
<glyph unicode="\" horiz-adv-x="764" d="M201 1462l544 -1462h-178l-544 1462h178z" />
<glyph unicode="]" horiz-adv-x="621" d="M51 -174h223v1487h-223v149h406v-1786h-406v150z" />
<glyph unicode="^" horiz-adv-x="1090" d="M41 549l459 924h102l447 -924h-161l-337 735l-349 -735h-161z" />
<glyph unicode="_" horiz-adv-x="842" d="M846 -324h-850v140h850v-140z" />
<glyph unicode="`" d="M786 1241h-120q-35 28 -76 69.5t-79.5 85.5t-70 84.5t-47.5 67.5v21h219q16 -34 37.5 -74.5t44.5 -81t47 -78.5t45 -67v-27z" />
<glyph unicode="a" horiz-adv-x="1087" d="M793 0l-37 152h-8q-33 -45 -66 -77.5t-72 -53.5t-87 -31t-111 -10q-69 0 -127 19.5t-100.5 60t-66.5 102t-24 145.5q0 164 115.5 252t351.5 96l184 7v69q0 67 -14.5 112t-42 72.5t-68 39.5t-92.5 12q-83 0 -154.5 -24t-137.5 -58l-64 137q74 40 165 68t191 28 q102 0 176.5 -20.5t123 -65t72.5 -113.5t24 -167v-752h-131zM459 127q61 0 113 19t90 57.5t59.5 97t21.5 137.5v99l-143 -7q-90 -4 -151 -20t-97.5 -44.5t-52.5 -69t-16 -91.5q0 -92 48.5 -135t127.5 -43z" />
<glyph unicode="b" horiz-adv-x="1200" d="M670 1118q94 0 171 -36t131.5 -107.5t84.5 -177.5t30 -246q0 -141 -30 -247.5t-84.5 -178.5t-131.5 -108.5t-171 -36.5q-59 0 -107 13t-86.5 34.5t-68 50.5t-52.5 61h-12l-37 -139h-133v1556h182v-376q0 -35 -1 -74.5t-3 -73.5q-2 -40 -4 -78h8q23 35 52 65t67.5 52 t86.5 34.5t108 12.5zM635 967q-80 0 -133.5 -25.5t-86 -77.5t-46 -130t-13.5 -183q0 -101 13.5 -179.5t46 -132t86.5 -81t135 -27.5q135 0 198.5 109t63.5 313q0 208 -63.5 311t-200.5 103z" />
<glyph unicode="c" horiz-adv-x="948" d="M594 -20q-101 0 -189 31.5t-153 100t-102 175t-37 256.5q0 157 38 266.5t104.5 178t155.5 99.5t191 31q78 0 152.5 -17t124.5 -42l-54 -154q-23 10 -51 19.5t-58 17t-59 12t-55 4.5q-157 0 -229 -100.5t-72 -312.5q0 -211 72.5 -308.5t220.5 -97.5q81 0 146.5 18.5 t119.5 43.5v-162q-54 -29 -115.5 -44t-150.5 -15z" />
<glyph unicode="d" horiz-adv-x="1200" d="M852 147h-8q-22 -34 -51.5 -64.5t-68 -53.5t-86.5 -36t-108 -13q-93 0 -170 36t-132 107.5t-85 177.5t-30 246q0 141 30 247.5t85 178.5t132 108.5t170 36.5q59 0 107 -13t86.5 -35t68.5 -51t52 -61h12q-3 34 -6 65q-2 26 -4 53.5t-2 43.5v436h182v-1556h-147zM565 131 q76 0 128.5 23t85 70t48 117.5t17.5 164.5v41q0 101 -13.5 179.5t-46 132t-86.5 81t-135 27.5q-135 0 -198.5 -109t-63.5 -313q0 -209 63.5 -311.5t200.5 -102.5z" />
<glyph unicode="e" horiz-adv-x="1096" d="M608 -20q-110 0 -201 37t-156.5 108t-101.5 176t-36 240q0 136 33 243t93 181.5t143.5 113.5t184.5 39q99 0 178 -35.5t134 -100t84.5 -155t29.5 -200.5v-113h-692q5 -193 81.5 -284t227.5 -91q51 0 94.5 5t84 14.5t78.5 24t77 32.5v-162q-40 -19 -78.5 -33t-79 -23 t-84 -13t-94.5 -4zM563 967q-114 0 -180.5 -78t-77.5 -227h492q0 68 -13.5 124.5t-42 96.5t-72.5 62t-106 22z" />
<glyph unicode="f" horiz-adv-x="674" d="M651 961h-245v-961h-183v961h-194v75l194 68v96q0 107 22.5 177.5t65 112.5t104.5 59.5t140 17.5q59 0 108.5 -11.5t88.5 -25.5l-47 -141q-31 11 -67.5 19.5t-76.5 8.5t-69 -9.5t-48 -33.5t-28.5 -65.5t-9.5 -106.5v-104h245v-137z" />
<glyph unicode="g" horiz-adv-x="1061" d="M1020 1098v-113l-197 -27q28 -35 47 -89.5t19 -123.5q0 -76 -23.5 -140.5t-71 -111.5t-117.5 -73.5t-163 -26.5q-22 0 -44 0.5t-36 3.5q-17 -10 -33.5 -22.5t-30 -28.5t-22 -36t-8.5 -44q0 -27 12 -43.5t32.5 -25.5t48.5 -12t59 -3h176q93 0 157 -23.5t104.5 -63.5 t58.5 -94.5t18 -115.5q0 -88 -32.5 -158t-99.5 -118.5t-169.5 -74.5t-241.5 -26q-107 0 -187 21t-133 61t-79.5 96.5t-26.5 127.5q0 60 19.5 105.5t52.5 78.5t76.5 54t90.5 32q-42 19 -69 60t-27 94q0 61 32 105.5t101 86.5q-43 18 -78.5 49.5t-60 72t-38 88.5t-13.5 99 q0 89 25 159t74 119t122 75t170 26q37 0 76.5 -5.5t66.5 -14.5h363zM209 -180q0 -37 13 -69t42.5 -55t78 -36.5t120.5 -13.5q186 0 278.5 57.5t92.5 165.5q0 46 -12 75t-39.5 45.5t-72.5 22.5t-110 6h-176q-35 0 -73 -8t-69.5 -30t-52 -60.5t-20.5 -99.5zM301 745 q0 -115 54 -171t153 -56q100 0 151.5 55.5t51.5 174.5q0 123 -52.5 181t-152.5 58q-99 0 -152 -60t-53 -182z" />
<glyph unicode="h" horiz-adv-x="1206" d="M860 0v707q0 130 -52.5 195t-164.5 65q-81 0 -136 -26t-88.5 -77t-48 -125t-14.5 -170v-569h-182v1556h182v-462l-8 -144h10q25 43 59.5 74.5t75.5 52.5t87 31t94 10q183 0 275.5 -95.5t92.5 -305.5v-717h-182z" />
<glyph unicode="i" horiz-adv-x="530" d="M356 0h-182v1098h182v-1098zM160 1395q0 60 30.5 87t75.5 27q22 0 41.5 -6.5t34 -20.5t23 -35.5t8.5 -51.5q0 -58 -31.5 -86.5t-75.5 -28.5q-45 0 -75.5 28t-30.5 87z" />
<glyph unicode="j" horiz-adv-x="530" d="M66 -492q-48 0 -79.5 7t-54.5 18v148q26 -10 53 -15.5t62 -5.5q27 0 50 7.5t40.5 27t27 52t9.5 83.5v1268h182v-1256q0 -77 -17 -138.5t-53 -105t-90.5 -67t-129.5 -23.5zM160 1395q0 60 30.5 87t75.5 27q22 0 41.5 -6.5t34 -20.5t23 -35.5t8.5 -51.5q0 -58 -31.5 -86.5 t-75.5 -28.5q-45 0 -75.5 28t-30.5 87z" />
<glyph unicode="k" horiz-adv-x="1016" d="M342 567l135 170l293 361h211l-401 -475l428 -623h-209l-336 504l-109 -82v-422h-180v1556h180v-714l-16 -275h4z" />
<glyph unicode="l" horiz-adv-x="530" d="M356 0h-182v1556h182v-1556z" />
<glyph unicode="m" horiz-adv-x="1835" d="M1489 0v707q0 130 -50 195t-155 65q-73 0 -124 -23.5t-83.5 -69t-47.5 -113t-15 -155.5v-606h-183v707q0 130 -49.5 195t-154.5 65q-77 0 -129 -26t-83.5 -77t-45 -125t-13.5 -170v-569h-182v1098h148l26 -148h10q24 43 57 74.5t72.5 52.5t84 31t90.5 10q120 0 199.5 -44 t117.5 -138h8q26 47 62.5 81t80 56.5t91.5 33.5t98 11q175 0 263.5 -95.5t88.5 -305.5v-717h-182z" />
<glyph unicode="n" horiz-adv-x="1206" d="M860 0v707q0 130 -52.5 195t-164.5 65q-81 0 -136 -26t-88.5 -77t-48 -125t-14.5 -170v-569h-182v1098h148l26 -148h10q25 43 59.5 74.5t75.5 52.5t87 31t94 10q183 0 275.5 -95.5t92.5 -305.5v-717h-182z" />
<glyph unicode="o" d="M1069 551q0 -137 -33.5 -243.5t-96 -179t-151.5 -110.5t-200 -38q-103 0 -190 38t-150.5 110.5t-99 179t-35.5 243.5q0 136 33.5 241.5t95.5 178t151.5 110t200.5 37.5q103 0 190 -37.5t150.5 -110t99 -178t35.5 -241.5zM301 551q0 -209 68.5 -314.5t222.5 -105.5 t221.5 105.5t67.5 314.5t-68.5 312.5t-222.5 103.5t-221.5 -103.5t-67.5 -312.5z" />
<glyph unicode="p" horiz-adv-x="1200" d="M670 -20q-59 0 -107 13t-86.5 34.5t-68 50.5t-52.5 61h-12q3 -34 6 -65q2 -26 4 -53.5t2 -43.5v-469h-182v1590h148l26 -148h8q23 35 52 65.5t67.5 53t86.5 36t108 13.5q94 0 171 -36t131.5 -107.5t84.5 -177.5t30 -246q0 -141 -30 -247.5t-84.5 -178.5t-131.5 -108.5 t-171 -36.5zM635 967q-76 0 -128.5 -23t-85 -70t-48 -117t-17.5 -165v-41q0 -101 13.5 -179.5t46 -132t86.5 -81t135 -27.5q135 0 198.5 109t63.5 313q0 208 -63.5 311t-200.5 103z" />
<glyph unicode="q" horiz-adv-x="1200" d="M565 131q76 0 128.5 23t85 70t48 117.5t17.5 164.5v41q0 101 -13.5 179.5t-46 132t-86.5 81t-135 27.5q-135 0 -198.5 -109t-63.5 -313q0 -209 63.5 -311.5t200.5 -102.5zM530 -20q-93 0 -170 36t-132 107.5t-85 177.5t-30 246q0 141 30 247.5t85 178.5t132 108.5 t170 36.5q59 0 107 -13.5t86 -36t68 -53t53 -65.5h8l27 148h147v-1590h-182v469q0 19 2 48t4 56q3 32 6 66h-12q-22 -34 -51.5 -64.5t-68 -53.5t-86.5 -36t-108 -13z" />
<glyph unicode="r" horiz-adv-x="817" d="M649 1118q29 0 65 -2.5t62 -7.5l-24 -168q-28 5 -57.5 8.5t-55.5 3.5q-63 0 -115 -25.5t-89.5 -73t-58 -114t-20.5 -147.5v-592h-182v1098h148l22 -201h8q25 43 53.5 83t64 70.5t79.5 49t100 18.5z" />
<glyph unicode="s" horiz-adv-x="924" d="M831 301q0 -80 -29 -140t-83.5 -100.5t-131.5 -60.5t-173 -20q-109 0 -187 17.5t-137 51.5v166q31 -16 69 -31.5t80 -27.5t86.5 -19.5t88.5 -7.5q65 0 110.5 11t74 31.5t41.5 50t13 65.5q0 31 -10 56t-36.5 49.5t-72.5 49.5t-118 56t-129.5 61t-97.5 67t-61.5 85.5 t-21.5 115.5q0 70 27.5 124.5t77.5 91.5t120 56t156 19q97 0 177.5 -21t152.5 -55l-63 -147q-65 29 -133.5 50.5t-139.5 21.5q-102 0 -151 -33.5t-49 -95.5q0 -35 11.5 -61t39.5 -49t75 -46.5t117 -52.5q72 -30 128.5 -60t96.5 -67.5t61 -85.5t21 -115z" />
<glyph unicode="t" horiz-adv-x="694" d="M506 129q18 0 40.5 2t43.5 5t38.5 7t26.5 7v-138q-13 -6 -33 -12t-44 -10.5t-50 -7t-51 -2.5q-62 0 -115 16t-91.5 55t-60.5 105.5t-22 167.5v637h-155v81l155 78l78 230h105v-252h276v-137h-276v-637q0 -97 31.5 -146t103.5 -49z" />
<glyph unicode="u" horiz-adv-x="1206" d="M885 0l-27 147h-10q-25 -43 -59.5 -74.5t-75.5 -52t-87 -30.5t-94 -10q-91 0 -160 23t-115 72t-69.5 125t-23.5 181v717h182v-707q0 -130 53 -195t164 -65q81 0 136 26t88.5 76.5t48 124.5t14.5 170v570h182v-1098h-147z" />
<glyph unicode="v" horiz-adv-x="981" d="M375 0l-375 1098h188l199 -611q11 -33 26 -85t30 -106t27.5 -102t16.5 -73h7q5 25 17 73t27 102t30 106t26 85l199 611h188l-375 -1098h-231z" />
<glyph unicode="w" horiz-adv-x="1528" d="M1008 0l-168 616q-4 18 -10 40.5t-12 47.5t-12.5 51t-12.5 51q-14 58 -29 120h-6q-14 -63 -27 -121q-11 -50 -23.5 -103t-23.5 -90l-172 -612h-211l-281 1098h191l131 -584q10 -45 20 -97.5t19 -104t16 -97t11 -74.5h6q5 26 13.5 69.5t19 92t21.5 96t21 80.5l179 619h196 l172 -619q9 -34 20.5 -80t22.5 -93.5t20 -91.5t13 -73h6q3 26 9.5 69.5t15.5 95.5t19.5 106.5t21.5 101.5l137 584h186l-284 -1098h-215z" />
<glyph unicode="x" horiz-adv-x="1024" d="M408 563l-353 535h207l250 -410l250 410h207l-355 -535l373 -563h-207l-268 436l-270 -436h-207z" />
<glyph unicode="y" horiz-adv-x="1001" d="M10 1098h189l215 -613q14 -40 28.5 -84t27 -88t21.5 -85t13 -76h6q5 25 16 68t24.5 91.5t28 95.5t25.5 80l199 611h188l-434 -1241q-28 -81 -60.5 -145.5t-75.5 -109.5t-101 -69.5t-138 -24.5q-52 0 -90 5.5t-65 11.5v145q21 -5 53 -8.5t67 -3.5q48 0 83 11.5t61 33.5 t44.5 54t33.5 73l57 160z" />
<glyph unicode="z" horiz-adv-x="903" d="M821 0h-739v125l536 836h-503v137h688v-146l-524 -815h542v-137z" />
<glyph unicode="{" horiz-adv-x="725" d="M500 -16q0 -48 12 -78.5t34.5 -48t55 -24t72.5 -7.5v-150q-77 1 -142.5 17.5t-113 52t-74.5 90.5t-27 133v334q0 103 -65.5 146t-190.5 43v155q125 0 190.5 43t65.5 146v333q0 78 27 133t74.5 90.5t113 52t142.5 17.5v-149q-40 -1 -72.5 -7.5t-55 -24t-34.5 -48 t-12 -78.5v-332q0 -105 -59.5 -166.5t-174.5 -81.5v-12q115 -20 174.5 -81t59.5 -167v-331z" />
<glyph unicode="|" horiz-adv-x="1128" d="M489 1556h150v-2048h-150v2048z" />
<glyph unicode="}" horiz-adv-x="725" d="M225 315q0 106 59.5 167t174.5 81v12q-115 20 -174.5 81.5t-59.5 166.5v332q0 48 -12 78.5t-34.5 48t-55 24t-72.5 7.5v149q77 -1 142.5 -17.5t113 -52t74.5 -90.5t27 -133v-333q0 -52 16.5 -88t49 -58.5t80.5 -32.5t110 -10v-155q-125 0 -190.5 -43t-65.5 -146v-334 q0 -78 -27 -133t-74.5 -90.5t-113 -52t-142.5 -17.5v150q40 1 72.5 7.5t55 24t34.5 48t12 78.5v331z" />
<glyph unicode="~" horiz-adv-x="1128" d="M530 651q-37 16 -64.5 27t-50 17.5t-43 9t-42.5 2.5q-28 0 -58 -9.5t-59.5 -26t-57.5 -38.5t-53 -47v162q100 108 248 108q29 0 54 -2.5t52.5 -9t61 -19t80.5 -32.5q37 -16 64.5 -27t51 -17.5t43.5 -9t42 -2.5q28 0 58 9.5t59.5 26t57.5 38.5t52 47v-162 q-99 -108 -248 -108q-29 0 -54 2.5t-52.5 9t-61 19t-80.5 32.5z" />
<glyph unicode="&#xa1;" horiz-adv-x="551" d="M213 676h121l51 -1049h-223zM401 979q0 -38 -9.5 -64.5t-27 -43t-40.5 -24t-50 -7.5q-26 0 -49 7.5t-40.5 24t-27.5 43t-10 64.5q0 37 10 63t27.5 43t40.5 25t49 8q27 0 50 -8t40.5 -25t27 -43t9.5 -63z" />
<glyph unicode="&#xa2;" horiz-adv-x="1128" d="M831 197q-55 -15 -131 -17v-200h-137v206q-87 13 -156 50.5t-118 104t-75 166t-26 236.5q0 141 26.5 242.5t75 169.5t118 105.5t155.5 50.5v172h137v-164q72 -3 140 -19.5t114 -39.5l-53 -154q-23 10 -51 19.5t-58 17t-59.5 12t-54.5 4.5q-157 0 -229 -101t-72 -313 q0 -210 72.5 -307.5t220.5 -97.5q81 0 146.5 18.5t119.5 42.5v-161q-50 -28 -105 -43z" />
<glyph unicode="&#xa3;" horiz-adv-x="1128" d="M666 1481q106 0 193 -22.5t153 -57.5l-66 -144q-56 29 -126.5 50.5t-145.5 21.5q-48 0 -89 -13.5t-71 -43t-46.5 -76.5t-16.5 -113v-295h376v-137h-376v-211q0 -62 -11.5 -106.5t-31 -76.5t-45 -53.5t-52.5 -37.5h748v-166h-991v154q44 11 80.5 31.5t63 54.5t41.5 82.5 t15 115.5v213h-198v137h198v324q0 87 29.5 155.5t82 116t125.5 72.5t161 25z" />
<glyph unicode="&#xa4;" horiz-adv-x="1128" d="M186 723q0 59 17.5 112.5t48.5 100.5l-129 129l98 98l127 -129q47 32 101 50t114 18t113.5 -18t99.5 -50l129 129l99 -96l-130 -129q31 -46 49.5 -100.5t18.5 -114.5t-17.5 -115t-50.5 -100l127 -127l-96 -96l-129 127q-46 -31 -99.5 -48.5t-113.5 -17.5t-115 18t-100 50 l-127 -127l-96 96l127 127q-31 45 -48.5 99t-17.5 114zM324 723q0 -50 18.5 -93.5t51 -76t76 -51.5t93.5 -19q51 0 95.5 19t77.5 51.5t52 76t19 93.5q0 51 -19 95.5t-52 77.5t-77.5 52t-95.5 19q-50 0 -93.5 -19t-76 -52t-51 -77.5t-18.5 -95.5z" />
<glyph unicode="&#xa5;" horiz-adv-x="1128" d="M563 723l346 739h191l-385 -768h239v-137h-301v-158h301v-137h-301v-262h-178v262h-301v137h301v158h-301v137h234l-379 768h192z" />
<glyph unicode="&#xa6;" horiz-adv-x="1128" d="M489 1556h150v-780h-150v780zM489 289h150v-781h-150v781z" />
<glyph unicode="&#xa7;" horiz-adv-x="995" d="M137 809q0 51 13 92.5t35.5 73.5t51.5 54.5t60 37.5q-75 38 -117.5 95t-42.5 141q0 61 27.5 110t77.5 83t120 52.5t156 18.5q97 0 175.5 -20t150.5 -52l-56 -139q-65 28 -135 47.5t-141 19.5q-99 0 -150 -29.5t-51 -86.5q0 -27 12 -50t40.5 -45t76 -45.5t117.5 -52.5 q72 -28 128.5 -60.5t95.5 -71.5t60 -87.5t21 -110.5q0 -52 -12 -94.5t-32.5 -76.5t-46.5 -58.5t-54 -40.5q69 -38 107 -92.5t38 -132.5q0 -71 -29.5 -126.5t-83.5 -94t-131.5 -58.5t-173.5 -20q-108 0 -186 16.5t-137 48.5v158q31 -15 69 -30t80 -26.5t86.5 -18.5t87.5 -7 q69 0 115.5 12t74 31.5t39 45t11.5 52.5q0 29 -8.5 51.5t-34 45t-72.5 47t-123 55.5q-73 31 -130.5 62t-97.5 70t-60.5 89t-20.5 117zM291 831q0 -37 14 -68.5t45.5 -60.5t82 -56.5t122.5 -57.5l35 -15q20 13 40.5 31t37 41t27 51t10.5 62q0 38 -13 70t-45.5 61.5t-86.5 58 t-136 58.5q-25 -8 -48.5 -23.5t-42.5 -38t-30.5 -51.5t-11.5 -62z" />
<glyph unicode="&#xa8;" d="M307 1395q0 54 28 78t68 24q39 0 68 -24.5t29 -77.5t-29 -78t-68 -25q-40 0 -68 25t-28 78zM682 1395q0 54 28 78t68 24q19 0 36.5 -6t30.5 -18.5t21 -31.5t8 -46q0 -53 -29 -78t-67 -25q-40 0 -68 25t-28 78z" />
<glyph unicode="&#xa9;" horiz-adv-x="1704" d="M891 1053q-61 0 -108 -22t-79 -63.5t-48.5 -101.5t-16.5 -135q0 -78 14.5 -138t45 -101t78 -62.5t114.5 -21.5q23 0 50 3.5t55.5 9.5t56.5 14.5t53 17.5v-131q-24 -11 -48.5 -20t-51 -16t-56.5 -10.5t-65 -3.5q-102 0 -178 33t-126.5 94t-76 146t-25.5 188 q0 101 27 184.5t79.5 143.5t129 93.5t176.5 33.5q63 0 129 -16.5t125 -45.5l-62 -127q-52 26 -100.5 40t-91.5 14zM100 731q0 104 27 200t75.5 179.5t117.5 152.5t152.5 117.5t179.5 75.5t200 27t200 -27t179.5 -75.5t152.5 -117.5t117.5 -152.5t75.5 -179.5t27 -200 t-27 -200t-75.5 -179.5t-117.5 -152t-152.5 -117.5t-179.5 -75.5t-200 -26.5t-200 26.5t-179.5 75.5t-152.5 117.5t-117.5 152t-75.5 179.5t-27 200zM209 731q0 -133 50.5 -250t138 -204.5t204.5 -138t250 -50.5t250 50.5t204.5 138t138 204.5t50.5 250t-50.5 250 t-138 204.5t-204.5 138t-250 50.5t-250 -50.5t-204.5 -138t-138 -204.5t-50.5 -250z" />
<glyph unicode="&#xaa;" horiz-adv-x="678" d="M487 797l-28 82q-18 -22 -37.5 -39.5t-43 -30t-51.5 -19t-63 -6.5q-43 0 -79 13t-62 38.5t-40.5 64t-14.5 89.5q0 102 70.5 156t213.5 59l99 4v31q0 72 -30.5 100.5t-86.5 28.5q-48 0 -93 -14.5t-87 -36.5l-48 100q51 26 109.5 44t118.5 18q125 0 184.5 -53t59.5 -175 v-454h-91zM377 1110q-51 -3 -85 -12t-54.5 -24t-29.5 -36.5t-9 -50.5q0 -51 25 -73.5t67 -22.5q34 0 63 10.5t50.5 32.5t34 54.5t12.5 76.5v49z" />
<glyph unicode="&#xab;" horiz-adv-x="997" d="M82 553l309 414l117 -78l-238 -348l238 -348l-117 -78l-309 411v27zM489 553l310 414l116 -78l-237 -348l237 -348l-116 -78l-310 411v27z" />
<glyph unicode="&#xac;" horiz-adv-x="1128" d="M1026 797v-535h-149v385h-775v150h924z" />
<glyph unicode="&#xad;" horiz-adv-x="659" d="M82 465zM82 465v168h496v-168h-496z" />
<glyph unicode="&#xae;" horiz-adv-x="1704" d="M743 768h72q91 0 130.5 36t39.5 105q0 74 -41.5 103.5t-130.5 29.5h-70v-274zM1145 913q0 -48 -13.5 -85.5t-36 -66t-51 -48.5t-59.5 -33q67 -110 120 -197q23 -37 44 -72.5t37.5 -63.5t26.5 -45l10 -17h-179l-206 352h-95v-352h-157v893h233q168 0 247 -65t79 -200z M100 731q0 104 27 200t75.5 179.5t117.5 152.5t152.5 117.5t179.5 75.5t200 27t200 -27t179.5 -75.5t152.5 -117.5t117.5 -152.5t75.5 -179.5t27 -200t-27 -200t-75.5 -179.5t-117.5 -152t-152.5 -117.5t-179.5 -75.5t-200 -26.5t-200 26.5t-179.5 75.5t-152.5 117.5 t-117.5 152t-75.5 179.5t-27 200zM209 731q0 -133 50.5 -250t138 -204.5t204.5 -138t250 -50.5t250 50.5t204.5 138t138 204.5t50.5 250t-50.5 250t-138 204.5t-204.5 138t-250 50.5t-250 -50.5t-204.5 -138t-138 -204.5t-50.5 -250z" />
<glyph unicode="&#xaf;" horiz-adv-x="1024" d="M1030 1556h-1036v140h1036v-140z" />
<glyph unicode="&#xb0;" horiz-adv-x="877" d="M123 1167q0 65 25 122.5t67.5 100.5t100 68t122.5 25t122.5 -25t100.5 -68t68 -100.5t25 -122.5t-25 -122t-68 -99.5t-100.5 -67t-122.5 -24.5t-122.5 24.5t-100 67t-67.5 99.5t-25 122zM246 1167q0 -39 15 -73.5t41 -60.5t61 -41t75 -15t75 15t61.5 41t41.5 60.5 t15 73.5q0 40 -15 75.5t-41.5 62t-61.5 42t-75 15.5t-75 -15.5t-61 -42t-41 -62t-15 -75.5z" />
<glyph unicode="&#xb1;" horiz-adv-x="1128" d="M489 647h-387v150h387v389h150v-389h387v-150h-387v-385h-150v385zM102 0v150h924v-150h-924z" />
<glyph unicode="&#xb2;" horiz-adv-x="678" d="M621 586h-572v112l209 228q57 62 93 104.5t56 76t27.5 63t7.5 63.5q0 65 -33 97t-87 32q-51 0 -97.5 -25t-91.5 -63l-78 94q54 48 120.5 80.5t148.5 32.5q60 0 108.5 -16.5t82.5 -48t52.5 -77t18.5 -102.5q0 -50 -14.5 -93t-41.5 -85.5t-66.5 -88t-90.5 -100.5l-148 -157 h396v-127z" />
<glyph unicode="&#xb3;" horiz-adv-x="678" d="M590 1255q0 -78 -40.5 -131t-109.5 -77q88 -23 132 -76t44 -131q0 -60 -20 -110t-61.5 -85.5t-104.5 -55.5t-149 -20q-70 0 -131.5 12.5t-118.5 43.5v133q63 -34 129 -53t119 -19q98 0 142 41.5t44 114.5q0 74 -53.5 107.5t-149.5 33.5h-98v113h98q92 0 134 39.5 t42 103.5q0 32 -10 55.5t-27.5 38.5t-41 22t-50.5 7q-59 0 -107.5 -20.5t-99.5 -57.5l-69 96q29 23 59.5 41.5t64.5 31.5t72 20.5t82 7.5q69 0 121.5 -17t87.5 -47t52.5 -71.5t17.5 -90.5z" />
<glyph unicode="&#xb4;" d="M393 1268q22 29 45.5 67t47 78.5t44.5 81t37 74.5h219v-21q-16 -27 -47.5 -67.5t-70 -84.5t-79 -85.5t-75.5 -69.5h-121v27z" />
<glyph unicode="&#xb5;" horiz-adv-x="1217" d="M356 391q0 -130 53 -195t164 -65q82 0 137 26t88.5 76.5t47.5 124.5t14 170v570h182v-1098h-147l-27 147h-10q-48 -83 -120 -125t-175 -42q-72 0 -125 23t-88 65q1 -38 3 -78q2 -35 2.5 -77.5t0.5 -84.5v-320h-182v1590h182v-707z" />
<glyph unicode="&#xb6;" horiz-adv-x="1341" d="M1126 -260h-120v1657h-207v-1657h-121v819q-61 -18 -146 -18q-95 0 -172.5 25.5t-132 84.5t-84.5 155t-30 236q0 147 32.5 245.5t92 158.5t142.5 85t183 25h563v-1816z" />
<glyph unicode="&#xb7;" horiz-adv-x="549" d="M147 723q0 38 10 64.5t27 43t40 24t50 7.5q26 0 49.5 -7.5t40.5 -24t27 -43t10 -64.5q0 -37 -10 -63t-27 -43t-40.5 -25t-49.5 -8q-27 0 -50 8t-40 25t-27 43t-10 63z" />
<glyph unicode="&#xb8;" horiz-adv-x="420" d="M408 -287q0 -97 -70.5 -151t-220.5 -54q-22 0 -44.5 3t-37.5 6v108q15 -3 39.5 -4.5t40.5 -1.5q71 0 111 21.5t40 70.5q0 24 -13 41.5t-36 30.5t-54.5 22.5t-68.5 18.5l90 176h121l-57 -115q34 -8 63 -21t50.5 -33.5t34 -49.5t12.5 -68z" />
<glyph unicode="&#xb9;" horiz-adv-x="678" d="M307 1462h135v-876h-145v516q0 25 0.5 55t2 60t3 58t2.5 50q-14 -17 -33 -37t-41 -37l-94 -73l-74 96z" />
<glyph unicode="&#xba;" horiz-adv-x="717" d="M651 1133q0 -83 -20.5 -148t-59 -109.5t-93 -68t-122.5 -23.5q-63 0 -116 23.5t-92 68t-60.5 109.5t-21.5 148t20.5 147.5t58.5 108.5t92.5 67t122.5 23q62 0 115.5 -23t92.5 -67t61 -108.5t22 -147.5zM197 1133q0 -119 37.5 -179.5t123.5 -60.5q85 0 122.5 60.5 t37.5 179.5q0 120 -37.5 177.5t-122.5 57.5q-86 0 -123.5 -57.5t-37.5 -177.5z" />
<glyph unicode="&#xbb;" horiz-adv-x="997" d="M918 526l-310 -411l-116 78l237 348l-237 348l116 78l310 -414v-27zM510 526l-309 -411l-117 78l238 348l-238 348l117 78l309 -414v-27z" />
<glyph unicode="&#xbc;" horiz-adv-x="1509" d="M1419 193h-125v-192h-143v192h-375v111l377 579h141v-563h125v-127zM1151 320v195q0 42 1.5 91.5t4.5 98.5q-5 -11 -15 -29.5t-21 -39.5t-23 -41l-21 -35l-155 -240h229zM307 1462h135v-876h-145v516q0 25 0.5 55t2 60t3 58t2.5 50q-14 -17 -33 -37t-41 -37l-94 -73 l-74 96zM1202 1462l-811 -1462h-157l811 1462h157z" />
<glyph unicode="&#xbd;" horiz-adv-x="1509" d="M44 0zM288 1462h135v-876h-145v516q0 25 0.5 55t2 60t3 58t2.5 50q-14 -17 -33 -37t-41 -37l-94 -73l-74 96zM1181 1462l-811 -1462h-157l811 1462h157zM1440 1h-572v112l209 228q57 62 93 104.5t56 76t27.5 63t7.5 63.5q0 65 -33 97t-87 32q-51 0 -97.5 -25t-91.5 -63 l-78 94q54 48 120.5 80.5t148.5 32.5q60 0 108.5 -16.5t82.5 -48t52.5 -77t18.5 -102.5q0 -50 -14.5 -93t-41.5 -85.5t-66.5 -88t-90.5 -100.5l-148 -157h396v-127z" />
<glyph unicode="&#xbe;" horiz-adv-x="1509" d="M1486 193h-125v-192h-143v192h-375v111l377 579h141v-563h125v-127zM1218 320v195q0 42 1.5 91.5t4.5 98.5q-5 -11 -15 -29.5t-21 -39.5t-23 -41l-21 -35l-155 -240h229zM590 1255q0 -78 -40.5 -131t-109.5 -77q88 -23 132 -76t44 -131q0 -60 -20 -110t-61.5 -85.5 t-104.5 -55.5t-149 -20q-70 0 -131.5 12.5t-118.5 43.5v133q63 -34 129 -53t119 -19q98 0 142 41.5t44 114.5q0 74 -53.5 107.5t-149.5 33.5h-98v113h98q92 0 134 39.5t42 103.5q0 32 -10 55.5t-27.5 38.5t-41 22t-50.5 7q-59 0 -107.5 -20.5t-99.5 -57.5l-69 96 q29 23 59.5 41.5t64.5 31.5t72 20.5t82 7.5q69 0 121.5 -17t87.5 -47t52.5 -71.5t17.5 -90.5zM1296 1462l-811 -1462h-157l811 1462h157z" />
<glyph unicode="&#xbf;" horiz-adv-x="872" d="M592 676v-37q0 -58 -8 -103.5t-27.5 -86t-52 -78.5t-82.5 -80q-48 -41 -82 -74.5t-55.5 -68t-32 -74t-10.5 -92.5q0 -48 15 -87.5t43.5 -68t71 -44t97.5 -15.5q84 0 159 25.5t144 60.5l64 -146q-82 -42 -176 -71t-191 -29q-93 0 -167.5 25.5t-126 73.5t-79.5 117t-28 157 q0 68 13.5 120t40 97t67 87t94.5 89q52 45 85 78.5t52 64.5t26 64.5t7 76.5v19h139zM639 979q0 -38 -9.5 -64.5t-27 -43t-40.5 -24t-50 -7.5q-26 0 -49 7.5t-40.5 24t-27.5 43t-10 64.5q0 37 10 63t27.5 43t40.5 25t49 8q27 0 50 -8t40.5 -25t27 -43t9.5 -63z" />
<glyph unicode="&#xc0;" horiz-adv-x="1245" d="M0 0zM1055 0l-160 453h-545l-162 -453h-188l537 1468h170l538 -1468h-190zM836 618l-148 424q-6 18 -14.5 44t-17.5 56t-18 62.5t-17 63.5q-7 -31 -16 -64t-18 -63.5t-17.5 -56t-14.5 -42.5l-145 -424h426zM719 1579h-120q-35 28 -76 69.5t-79.5 85.5t-70 84.5 t-47.5 67.5v21h219q16 -34 37.5 -74.5t44.5 -81t47 -78.5t45 -67v-27z" />
<glyph unicode="&#xc1;" horiz-adv-x="1245" d="M0 0zM1055 0l-160 453h-545l-162 -453h-188l537 1468h170l538 -1468h-190zM836 618l-148 424q-6 18 -14.5 44t-17.5 56t-18 62.5t-17 63.5q-7 -31 -16 -64t-18 -63.5t-17.5 -56t-14.5 -42.5l-145 -424h426zM534 1606q22 29 45.5 67t47 78.5t44.5 81t37 74.5h219v-21 q-16 -27 -47.5 -67.5t-70 -84.5t-79 -85.5t-75.5 -69.5h-121v27z" />
<glyph unicode="&#xc2;" horiz-adv-x="1245" d="M0 0zM1055 0l-160 453h-545l-162 -453h-188l537 1468h170l538 -1468h-190zM836 618l-148 424q-6 18 -14.5 44t-17.5 56t-18 62.5t-17 63.5q-7 -31 -16 -64t-18 -63.5t-17.5 -56t-14.5 -42.5l-145 -424h426zM953 1579h-121q-51 34 -105 82.5t-106 103.5 q-54 -55 -107 -103.5t-104 -82.5h-121v27q26 29 60 67t67.5 78.5t63 81t45.5 74.5h192q16 -34 45.5 -74.5t63 -81t68 -78.5t59.5 -67v-27z" />
<glyph unicode="&#xc3;" horiz-adv-x="1245" d="M0 0zM1055 0l-160 453h-545l-162 -453h-188l537 1468h170l538 -1468h-190zM836 618l-148 424q-6 18 -14.5 44t-17.5 56t-18 62.5t-17 63.5q-7 -31 -16 -64t-18 -63.5t-17.5 -56t-14.5 -42.5l-145 -424h426zM772 1581q-40 0 -79.5 17.5t-77.5 39t-73 39t-67 17.5 q-45 0 -69 -26.5t-38 -88.5h-104q5 60 21.5 109t43 83.5t63.5 53t83 18.5q42 0 82.5 -17.5t78.5 -38.5t72.5 -38.5t63.5 -17.5q45 0 68 26t38 88h105q-5 -60 -21.5 -108.5t-43 -83t-63.5 -53.5t-83 -19z" />
<glyph unicode="&#xc4;" horiz-adv-x="1245" d="M0 0zM1055 0l-160 453h-545l-162 -453h-188l537 1468h170l538 -1468h-190zM836 618l-148 424q-6 18 -14.5 44t-17.5 56t-18 62.5t-17 63.5q-7 -31 -16 -64t-18 -63.5t-17.5 -56t-14.5 -42.5l-145 -424h426zM340 1733q0 54 28 78t68 24q39 0 68 -24.5t29 -77.5t-29 -78 t-68 -25q-40 0 -68 25t-28 78zM715 1733q0 54 28 78t68 24q19 0 36.5 -6t30.5 -18.5t21 -31.5t8 -46q0 -53 -29 -78t-67 -25q-40 0 -68 25t-28 78z" />
<glyph unicode="&#xc5;" horiz-adv-x="1245" d="M0 0zM1055 0l-160 453h-545l-162 -453h-188l537 1468h170l538 -1468h-190zM836 618l-148 424q-6 18 -14.5 44t-17.5 56t-18 62.5t-17 63.5q-7 -31 -16 -64t-18 -63.5t-17.5 -56t-14.5 -42.5l-145 -424h426zM848 1583q0 -51 -17.5 -91.5t-48 -68.5t-72.5 -42.5t-91 -14.5 q-50 0 -91 14.5t-70.5 42.5t-45.5 67.5t-16 90.5t16 90.5t45.5 67.5t70.5 42.5t91 14.5q48 0 90 -14.5t73 -42t48.5 -67t17.5 -89.5zM731 1581q0 53 -31.5 83t-80.5 30q-50 0 -81.5 -30t-31.5 -83t28.5 -83t84.5 -30q49 0 80.5 30t31.5 83z" />
<glyph unicode="&#xc6;" horiz-adv-x="1745" d="M1622 0h-760v453h-475l-203 -453h-186l655 1462h969v-164h-573v-452h534v-162h-534v-520h573v-164zM459 618h403v680h-108z" />
<glyph unicode="&#xc7;" horiz-adv-x="1235" d="M125 0zM793 1319q-107 0 -194 -40.5t-148.5 -116.5t-95 -185t-33.5 -246q0 -141 29.5 -250.5t88.5 -184.5t147 -114t206 -39q89 0 169 17.5t158 40.5v-162q-39 -15 -78 -26.5t-81.5 -18.5t-91 -10.5t-107.5 -3.5q-164 0 -284 54t-198.5 153t-116.5 238t-38 308 q0 166 43.5 304t128 237t209.5 154t287 55q108 0 206 -22t177 -64l-78 -156q-63 32 -137 55t-168 23zM916 -287q0 -97 -70.5 -151t-220.5 -54q-22 0 -44.5 3t-37.5 6v108q15 -3 39.5 -4.5t40.5 -1.5q71 0 111 21.5t40 70.5q0 24 -13 41.5t-36 30.5t-54.5 22.5t-68.5 18.5 l90 176h121l-57 -115q34 -8 63 -21t50.5 -33.5t34 -49.5t12.5 -68z" />
<glyph unicode="&#xc8;" horiz-adv-x="1081" d="M199 0zM958 0h-759v1462h759v-164h-573v-452h535v-162h-535v-520h573v-164zM713 1579h-120q-35 28 -76 69.5t-79.5 85.5t-70 84.5t-47.5 67.5v21h219q16 -34 37.5 -74.5t44.5 -81t47 -78.5t45 -67v-27z" />
<glyph unicode="&#xc9;" horiz-adv-x="1081" d="M199 0zM958 0h-759v1462h759v-164h-573v-452h535v-162h-535v-520h573v-164zM456 1606q22 29 45.5 67t47 78.5t44.5 81t37 74.5h219v-21q-16 -27 -47.5 -67.5t-70 -84.5t-79 -85.5t-75.5 -69.5h-121v27z" />
<glyph unicode="&#xca;" horiz-adv-x="1081" d="M199 0zM958 0h-759v1462h759v-164h-573v-452h535v-162h-535v-520h573v-164zM907 1579h-121q-51 34 -105 82.5t-106 103.5q-54 -55 -107 -103.5t-104 -82.5h-121v27q26 29 60 67t67.5 78.5t63 81t45.5 74.5h192q16 -34 45.5 -74.5t63 -81t68 -78.5t59.5 -67v-27z" />
<glyph unicode="&#xcb;" horiz-adv-x="1081" d="M199 0zM958 0h-759v1462h759v-164h-573v-452h535v-162h-535v-520h573v-164zM296 1733q0 54 28 78t68 24q39 0 68 -24.5t29 -77.5t-29 -78t-68 -25q-40 0 -68 25t-28 78zM671 1733q0 54 28 78t68 24q19 0 36.5 -6t30.5 -18.5t21 -31.5t8 -46q0 -53 -29 -78t-67 -25 q-40 0 -68 25t-28 78z" />
<glyph unicode="&#xcc;" horiz-adv-x="694" d="M62 0zM612 0h-530v102l172 41v1176l-172 41v102h530v-102l-172 -41v-1176l172 -41v-102zM455 1579h-120q-35 28 -76 69.5t-79.5 85.5t-70 84.5t-47.5 67.5v21h219q16 -34 37.5 -74.5t44.5 -81t47 -78.5t45 -67v-27z" />
<glyph unicode="&#xcd;" horiz-adv-x="694" d="M82 0zM612 0h-530v102l172 41v1176l-172 41v102h530v-102l-172 -41v-1176l172 -41v-102zM257 1606q22 29 45.5 67t47 78.5t44.5 81t37 74.5h219v-21q-16 -27 -47.5 -67.5t-70 -84.5t-79 -85.5t-75.5 -69.5h-121v27z" />
<glyph unicode="&#xce;" horiz-adv-x="694" d="M17 0zM612 0h-530v102l172 41v1176l-172 41v102h530v-102l-172 -41v-1176l172 -41v-102zM681 1579h-121q-51 34 -105 82.5t-106 103.5q-54 -55 -107 -103.5t-104 -82.5h-121v27q26 29 60 67t67.5 78.5t63 81t45.5 74.5h192q16 -34 45.5 -74.5t63 -81t68 -78.5t59.5 -67 v-27z" />
<glyph unicode="&#xcf;" horiz-adv-x="694" d="M64 0zM612 0h-530v102l172 41v1176l-172 41v102h530v-102l-172 -41v-1176l172 -41v-102zM64 1733q0 54 28 78t68 24q39 0 68 -24.5t29 -77.5t-29 -78t-68 -25q-40 0 -68 25t-28 78zM439 1733q0 54 28 78t68 24q19 0 36.5 -6t30.5 -18.5t21 -31.5t8 -46q0 -53 -29 -78 t-67 -25q-40 0 -68 25t-28 78z" />
<glyph unicode="&#xd0;" horiz-adv-x="1401" d="M47 805h152v657h407q153 0 277 -46t211 -136.5t134.5 -224.5t47.5 -310q0 -185 -48 -324.5t-139 -233t-223.5 -140.5t-300.5 -47h-366v643h-152v162zM1079 739q0 146 -33 252.5t-96 175.5t-155 102.5t-209 33.5h-201v-498h336v-162h-336v-483h162q264 0 398 146t134 433z " />
<glyph unicode="&#xd1;" horiz-adv-x="1493" d="M199 0zM1294 0h-215l-719 1210h-8q6 -77 10 -153q4 -65 6.5 -136t2.5 -128v-793h-172v1462h213l716 -1204h7q-3 76 -7 150q-1 32 -2.5 65.5l-3 67t-2 64.5t-0.5 57v800h174v-1462zM905 1581q-40 0 -79.5 17.5t-77.5 39t-73 39t-67 17.5q-45 0 -69 -26.5t-38 -88.5h-104 q5 60 21.5 109t43 83.5t63.5 53t83 18.5q42 0 82.5 -17.5t78.5 -38.5t72.5 -38.5t63.5 -17.5q45 0 68 26t38 88h105q-5 -60 -21.5 -108.5t-43 -83t-63.5 -53.5t-83 -19z" />
<glyph unicode="&#xd2;" horiz-adv-x="1520" d="M125 0zM1393 733q0 -169 -40.5 -308t-120.5 -238t-198.5 -153t-273.5 -54q-163 0 -282.5 54t-198 153t-116.5 238.5t-38 309.5t38 308.5t117 236.5t199 151.5t283 53.5q155 0 272.5 -53.5t197.5 -152t120.5 -237t40.5 -309.5zM322 733q0 -137 26 -246.5t79.5 -186 t136 -117t196.5 -40.5t196.5 40.5t136 117t78.5 186t25 246.5q0 138 -25 247t-78 184.5t-135 116t-196 40.5t-197 -40.5t-137 -116t-80 -184.5t-26 -247zM870 1579h-120q-35 28 -76 69.5t-79.5 85.5t-70 84.5t-47.5 67.5v21h219q16 -34 37.5 -74.5t44.5 -81t47 -78.5t45 -67 v-27z" />
<glyph unicode="&#xd3;" horiz-adv-x="1520" d="M125 0zM1393 733q0 -169 -40.5 -308t-120.5 -238t-198.5 -153t-273.5 -54q-163 0 -282.5 54t-198 153t-116.5 238.5t-38 309.5t38 308.5t117 236.5t199 151.5t283 53.5q155 0 272.5 -53.5t197.5 -152t120.5 -237t40.5 -309.5zM322 733q0 -137 26 -246.5t79.5 -186 t136 -117t196.5 -40.5t196.5 40.5t136 117t78.5 186t25 246.5q0 138 -25 247t-78 184.5t-135 116t-196 40.5t-197 -40.5t-137 -116t-80 -184.5t-26 -247zM651 1606q22 29 45.5 67t47 78.5t44.5 81t37 74.5h219v-21q-16 -27 -47.5 -67.5t-70 -84.5t-79 -85.5t-75.5 -69.5 h-121v27z" />
<glyph unicode="&#xd4;" horiz-adv-x="1520" d="M125 0zM1393 733q0 -169 -40.5 -308t-120.5 -238t-198.5 -153t-273.5 -54q-163 0 -282.5 54t-198 153t-116.5 238.5t-38 309.5t38 308.5t117 236.5t199 151.5t283 53.5q155 0 272.5 -53.5t197.5 -152t120.5 -237t40.5 -309.5zM322 733q0 -137 26 -246.5t79.5 -186 t136 -117t196.5 -40.5t196.5 40.5t136 117t78.5 186t25 246.5q0 138 -25 247t-78 184.5t-135 116t-196 40.5t-197 -40.5t-137 -116t-80 -184.5t-26 -247zM1096 1579h-121q-51 34 -105 82.5t-106 103.5q-54 -55 -107 -103.5t-104 -82.5h-121v27q26 29 60 67t67.5 78.5t63 81 t45.5 74.5h192q16 -34 45.5 -74.5t63 -81t68 -78.5t59.5 -67v-27z" />
<glyph unicode="&#xd5;" horiz-adv-x="1520" d="M125 0zM1393 733q0 -169 -40.5 -308t-120.5 -238t-198.5 -153t-273.5 -54q-163 0 -282.5 54t-198 153t-116.5 238.5t-38 309.5t38 308.5t117 236.5t199 151.5t283 53.5q155 0 272.5 -53.5t197.5 -152t120.5 -237t40.5 -309.5zM322 733q0 -137 26 -246.5t79.5 -186 t136 -117t196.5 -40.5t196.5 40.5t136 117t78.5 186t25 246.5q0 138 -25 247t-78 184.5t-135 116t-196 40.5t-197 -40.5t-137 -116t-80 -184.5t-26 -247zM891 1581q-40 0 -79.5 17.5t-77.5 39t-73 39t-67 17.5q-45 0 -69 -26.5t-38 -88.5h-104q5 60 21.5 109t43 83.5 t63.5 53t83 18.5q42 0 82.5 -17.5t78.5 -38.5t72.5 -38.5t63.5 -17.5q45 0 68 26t38 88h105q-5 -60 -21.5 -108.5t-43 -83t-63.5 -53.5t-83 -19z" />
<glyph unicode="&#xd6;" horiz-adv-x="1520" d="M125 0zM1393 733q0 -169 -40.5 -308t-120.5 -238t-198.5 -153t-273.5 -54q-163 0 -282.5 54t-198 153t-116.5 238.5t-38 309.5t38 308.5t117 236.5t199 151.5t283 53.5q155 0 272.5 -53.5t197.5 -152t120.5 -237t40.5 -309.5zM322 733q0 -137 26 -246.5t79.5 -186 t136 -117t196.5 -40.5t196.5 40.5t136 117t78.5 186t25 246.5q0 138 -25 247t-78 184.5t-135 116t-196 40.5t-197 -40.5t-137 -116t-80 -184.5t-26 -247zM477 1733q0 54 28 78t68 24q39 0 68 -24.5t29 -77.5t-29 -78t-68 -25q-40 0 -68 25t-28 78zM852 1733q0 54 28 78 t68 24q19 0 36.5 -6t30.5 -18.5t21 -31.5t8 -46q0 -53 -29 -78t-67 -25q-40 0 -68 25t-28 78z" />
<glyph unicode="&#xd7;" horiz-adv-x="1128" d="M459 723l-318 319l105 105l317 -318l322 318l104 -103l-321 -321l319 -320l-102 -102l-322 317l-317 -315l-103 103z" />
<glyph unicode="&#xd8;" horiz-adv-x="1520" d="M1300 1454l-92 -149q91 -99 138 -244t47 -328q0 -169 -40.5 -308t-120.5 -238t-198.5 -153t-273.5 -54q-189 0 -322 71l-78 -127l-137 78l90 145q-97 100 -142.5 249t-45.5 339q0 170 38 308.5t117 236.5t199 151.5t283 53.5q94 0 174.5 -21t146.5 -59l80 127zM322 733 q0 -131 23 -235.5t71 -182.5l579 945q-48 29 -105 45t-128 16q-114 0 -197 -40.5t-137 -116t-80 -184.5t-26 -247zM1196 733q0 257 -88 408l-578 -940q47 -28 104 -43t126 -15q114 0 196.5 40.5t136 117t78.5 186t25 246.5z" />
<glyph unicode="&#xd9;" horiz-adv-x="1430" d="M184 0zM1245 1464v-948q0 -114 -33 -212t-99.5 -170t-167 -113t-236.5 -41q-128 0 -226 38.5t-164.5 109.5t-100.5 170.5t-34 221.5v942h187v-952q0 -175 86.5 -271t261.5 -96q89 0 153 27t105 76t61 117t21 149v952h186zM847 1579h-120q-35 28 -76 69.5t-79.5 85.5 t-70 84.5t-47.5 67.5v21h219q16 -34 37.5 -74.5t44.5 -81t47 -78.5t45 -67v-27z" />
<glyph unicode="&#xda;" horiz-adv-x="1430" d="M184 0zM1245 1464v-948q0 -114 -33 -212t-99.5 -170t-167 -113t-236.5 -41q-128 0 -226 38.5t-164.5 109.5t-100.5 170.5t-34 221.5v942h187v-952q0 -175 86.5 -271t261.5 -96q89 0 153 27t105 76t61 117t21 149v952h186zM590 1606q22 29 45.5 67t47 78.5t44.5 81 t37 74.5h219v-21q-16 -27 -47.5 -67.5t-70 -84.5t-79 -85.5t-75.5 -69.5h-121v27z" />
<glyph unicode="&#xdb;" horiz-adv-x="1430" d="M184 0zM1245 1464v-948q0 -114 -33 -212t-99.5 -170t-167 -113t-236.5 -41q-128 0 -226 38.5t-164.5 109.5t-100.5 170.5t-34 221.5v942h187v-952q0 -175 86.5 -271t261.5 -96q89 0 153 27t105 76t61 117t21 149v952h186zM1043 1579h-121q-51 34 -105 82.5t-106 103.5 q-54 -55 -107 -103.5t-104 -82.5h-121v27q26 29 60 67t67.5 78.5t63 81t45.5 74.5h192q16 -34 45.5 -74.5t63 -81t68 -78.5t59.5 -67v-27z" />
<glyph unicode="&#xdc;" horiz-adv-x="1430" d="M184 0zM1245 1464v-948q0 -114 -33 -212t-99.5 -170t-167 -113t-236.5 -41q-128 0 -226 38.5t-164.5 109.5t-100.5 170.5t-34 221.5v942h187v-952q0 -175 86.5 -271t261.5 -96q89 0 153 27t105 76t61 117t21 149v952h186zM432 1733q0 54 28 78t68 24q39 0 68 -24.5 t29 -77.5t-29 -78t-68 -25q-40 0 -68 25t-28 78zM807 1733q0 54 28 78t68 24q19 0 36.5 -6t30.5 -18.5t21 -31.5t8 -46q0 -53 -29 -78t-67 -25q-40 0 -68 25t-28 78z" />
<glyph unicode="&#xdd;" horiz-adv-x="1079" d="M0 0zM539 723l340 739h200l-446 -893v-569h-187v559l-446 903h203zM442 1606q22 29 45.5 67t47 78.5t44.5 81t37 74.5h219v-21q-16 -27 -47.5 -67.5t-70 -84.5t-79 -85.5t-75.5 -69.5h-121v27z" />
<glyph unicode="&#xde;" horiz-adv-x="1180" d="M1075 782q0 -91 -27.5 -175t-90.5 -148.5t-166.5 -103t-255.5 -38.5h-150v-317h-186v1462h186v-252h176q134 0 231 -28.5t160 -83t93 -134.5t30 -182zM385 475h129q93 0 162.5 16t115 51.5t68.5 92t23 137.5q0 143 -82 211t-256 68h-160v-576z" />
<glyph unicode="&#xdf;" horiz-adv-x="1233" d="M1010 1260q0 -57 -21.5 -101.5t-53 -81t-69 -66.5t-69 -57.5t-53 -54.5t-21.5 -57q0 -21 7 -37.5t26.5 -36t54.5 -44t92 -62.5q56 -37 100 -73t74.5 -77t47 -89t16.5 -110q0 -87 -28 -150t-78.5 -103.5t-121 -60t-155.5 -19.5q-97 0 -166.5 17.5t-122.5 51.5v166 q26 -16 58.5 -31.5t68.5 -27.5t74 -19.5t75 -7.5q56 0 96.5 12.5t66.5 35t38 54.5t12 72q0 36 -8.5 65.5t-30 57.5t-57.5 57t-92 64q-63 40 -105.5 74t-69 67.5t-37.5 68.5t-11 77q0 54 20.5 93.5t51.5 71t67 58.5t67 56t51.5 62.5t20.5 77.5q0 42 -16.5 73t-46.5 51.5 t-71.5 30t-92.5 9.5q-49 0 -93 -9.5t-77 -33.5t-52.5 -65.5t-19.5 -106.5v-1202h-182v1200q0 104 31.5 174.5t88 113t134.5 61t170 18.5t168 -19t130 -57t84 -96t30 -135z" />
<glyph unicode="&#xe0;" horiz-adv-x="1087" d="M94 0zM793 0l-37 152h-8q-33 -45 -66 -77.5t-72 -53.5t-87 -31t-111 -10q-69 0 -127 19.5t-100.5 60t-66.5 102t-24 145.5q0 164 115.5 252t351.5 96l184 7v69q0 67 -14.5 112t-42 72.5t-68 39.5t-92.5 12q-83 0 -154.5 -24t-137.5 -58l-64 137q74 40 165 68t191 28 q102 0 176.5 -20.5t123 -65t72.5 -113.5t24 -167v-752h-131zM459 127q61 0 113 19t90 57.5t59.5 97t21.5 137.5v99l-143 -7q-90 -4 -151 -20t-97.5 -44.5t-52.5 -69t-16 -91.5q0 -92 48.5 -135t127.5 -43zM678 1241h-120q-35 28 -76 69.5t-79.5 85.5t-70 84.5t-47.5 67.5v21 h219q16 -34 37.5 -74.5t44.5 -81t47 -78.5t45 -67v-27z" />
<glyph unicode="&#xe1;" horiz-adv-x="1087" d="M94 0zM793 0l-37 152h-8q-33 -45 -66 -77.5t-72 -53.5t-87 -31t-111 -10q-69 0 -127 19.5t-100.5 60t-66.5 102t-24 145.5q0 164 115.5 252t351.5 96l184 7v69q0 67 -14.5 112t-42 72.5t-68 39.5t-92.5 12q-83 0 -154.5 -24t-137.5 -58l-64 137q74 40 165 68t191 28 q102 0 176.5 -20.5t123 -65t72.5 -113.5t24 -167v-752h-131zM459 127q61 0 113 19t90 57.5t59.5 97t21.5 137.5v99l-143 -7q-90 -4 -151 -20t-97.5 -44.5t-52.5 -69t-16 -91.5q0 -92 48.5 -135t127.5 -43zM446 1268q22 29 45.5 67t47 78.5t44.5 81t37 74.5h219v-21 q-16 -27 -47.5 -67.5t-70 -84.5t-79 -85.5t-75.5 -69.5h-121v27z" />
<glyph unicode="&#xe2;" horiz-adv-x="1087" d="M94 0zM793 0l-37 152h-8q-33 -45 -66 -77.5t-72 -53.5t-87 -31t-111 -10q-69 0 -127 19.5t-100.5 60t-66.5 102t-24 145.5q0 164 115.5 252t351.5 96l184 7v69q0 67 -14.5 112t-42 72.5t-68 39.5t-92.5 12q-83 0 -154.5 -24t-137.5 -58l-64 137q74 40 165 68t191 28 q102 0 176.5 -20.5t123 -65t72.5 -113.5t24 -167v-752h-131zM459 127q61 0 113 19t90 57.5t59.5 97t21.5 137.5v99l-143 -7q-90 -4 -151 -20t-97.5 -44.5t-52.5 -69t-16 -91.5q0 -92 48.5 -135t127.5 -43zM892 1241h-121q-51 34 -105 82.5t-106 103.5q-54 -55 -107 -103.5 t-104 -82.5h-121v27q26 29 60 67t67.5 78.5t63 81t45.5 74.5h192q16 -34 45.5 -74.5t63 -81t68 -78.5t59.5 -67v-27z" />
<glyph unicode="&#xe3;" horiz-adv-x="1087" d="M94 0zM793 0l-37 152h-8q-33 -45 -66 -77.5t-72 -53.5t-87 -31t-111 -10q-69 0 -127 19.5t-100.5 60t-66.5 102t-24 145.5q0 164 115.5 252t351.5 96l184 7v69q0 67 -14.5 112t-42 72.5t-68 39.5t-92.5 12q-83 0 -154.5 -24t-137.5 -58l-64 137q74 40 165 68t191 28 q102 0 176.5 -20.5t123 -65t72.5 -113.5t24 -167v-752h-131zM459 127q61 0 113 19t90 57.5t59.5 97t21.5 137.5v99l-143 -7q-90 -4 -151 -20t-97.5 -44.5t-52.5 -69t-16 -91.5q0 -92 48.5 -135t127.5 -43zM699 1243q-40 0 -79.5 17.5t-77.5 39t-73 39t-67 17.5 q-45 0 -69 -26.5t-38 -88.5h-104q5 60 21.5 109t43 83.5t63.5 53t83 18.5q42 0 82.5 -17.5t78.5 -38.5t72.5 -38.5t63.5 -17.5q45 0 68 26t38 88h105q-5 -60 -21.5 -108.5t-43 -83t-63.5 -53.5t-83 -19z" />
<glyph unicode="&#xe4;" horiz-adv-x="1087" d="M94 0zM793 0l-37 152h-8q-33 -45 -66 -77.5t-72 -53.5t-87 -31t-111 -10q-69 0 -127 19.5t-100.5 60t-66.5 102t-24 145.5q0 164 115.5 252t351.5 96l184 7v69q0 67 -14.5 112t-42 72.5t-68 39.5t-92.5 12q-83 0 -154.5 -24t-137.5 -58l-64 137q74 40 165 68t191 28 q102 0 176.5 -20.5t123 -65t72.5 -113.5t24 -167v-752h-131zM459 127q61 0 113 19t90 57.5t59.5 97t21.5 137.5v99l-143 -7q-90 -4 -151 -20t-97.5 -44.5t-52.5 -69t-16 -91.5q0 -92 48.5 -135t127.5 -43zM273 1395q0 54 28 78t68 24q39 0 68 -24.5t29 -77.5t-29 -78 t-68 -25q-40 0 -68 25t-28 78zM648 1395q0 54 28 78t68 24q19 0 36.5 -6t30.5 -18.5t21 -31.5t8 -46q0 -53 -29 -78t-67 -25q-40 0 -68 25t-28 78z" />
<glyph unicode="&#xe5;" horiz-adv-x="1087" d="M94 0zM793 0l-37 152h-8q-33 -45 -66 -77.5t-72 -53.5t-87 -31t-111 -10q-69 0 -127 19.5t-100.5 60t-66.5 102t-24 145.5q0 164 115.5 252t351.5 96l184 7v69q0 67 -14.5 112t-42 72.5t-68 39.5t-92.5 12q-83 0 -154.5 -24t-137.5 -58l-64 137q74 40 165 68t191 28 q102 0 176.5 -20.5t123 -65t72.5 -113.5t24 -167v-752h-131zM459 127q61 0 113 19t90 57.5t59.5 97t21.5 137.5v99l-143 -7q-90 -4 -151 -20t-97.5 -44.5t-52.5 -69t-16 -91.5q0 -92 48.5 -135t127.5 -43zM783 1458q0 -51 -17.5 -91.5t-48 -68.5t-72.5 -42.5t-91 -14.5 q-50 0 -91 14.5t-70.5 42.5t-45.5 67.5t-16 90.5t16 90.5t45.5 67.5t70.5 42.5t91 14.5q48 0 90 -14.5t73 -42t48.5 -67t17.5 -89.5zM666 1456q0 53 -31.5 83t-80.5 30q-50 0 -81.5 -30t-31.5 -83t28.5 -83t84.5 -30q49 0 80.5 30t31.5 83z" />
<glyph unicode="&#xe6;" horiz-adv-x="1706" d="M94 307q0 164 115.5 252t351.5 96l184 7v69q0 67 -14.5 112t-42 72.5t-68 39.5t-92.5 12q-83 0 -154.5 -24t-137.5 -58l-64 137q74 40 165 68t191 28q131 0 214 -42.5t126 -135.5q51 85 134 131.5t186 46.5q97 0 174 -35.5t131 -100t82.5 -155t28.5 -200.5v-113h-672 q5 -193 78.5 -284t220.5 -91q49 0 91.5 5t81.5 14.5t76 24t74 32.5v-162q-39 -19 -76.5 -33t-77 -23t-82 -13t-91.5 -4q-138 0 -239 57t-163 172q-34 -54 -72 -96.5t-85.5 -72t-105.5 -45t-132 -15.5q-71 0 -132.5 19.5t-106.5 60t-71 102t-26 145.5zM283 305 q0 -92 48.5 -135t127.5 -43q61 0 113 19t90 57.5t59.5 97t21.5 137.5v99l-143 -7q-90 -4 -151 -20t-97.5 -44.5t-52.5 -69t-16 -91.5zM1184 967q-110 0 -173.5 -78t-74.5 -227h471q0 68 -13 124.5t-40.5 96.5t-69.5 62t-100 22z" />
<glyph unicode="&#xe7;" horiz-adv-x="948" d="M113 0zM594 -20q-101 0 -189 31.5t-153 100t-102 175t-37 256.5q0 157 38 266.5t104.5 178t155.5 99.5t191 31q78 0 152.5 -17t124.5 -42l-54 -154q-23 10 -51 19.5t-58 17t-59 12t-55 4.5q-157 0 -229 -100.5t-72 -312.5q0 -211 72.5 -308.5t220.5 -97.5 q81 0 146.5 18.5t119.5 43.5v-162q-54 -29 -115.5 -44t-150.5 -15zM730 -287q0 -97 -70.5 -151t-220.5 -54q-22 0 -44.5 3t-37.5 6v108q15 -3 39.5 -4.5t40.5 -1.5q71 0 111 21.5t40 70.5q0 24 -13 41.5t-36 30.5t-54.5 22.5t-68.5 18.5l90 176h121l-57 -115q34 -8 63 -21 t50.5 -33.5t34 -49.5t12.5 -68z" />
<glyph unicode="&#xe8;" horiz-adv-x="1096" d="M113 0zM608 -20q-110 0 -201 37t-156.5 108t-101.5 176t-36 240q0 136 33 243t93 181.5t143.5 113.5t184.5 39q99 0 178 -35.5t134 -100t84.5 -155t29.5 -200.5v-113h-692q5 -193 81.5 -284t227.5 -91q51 0 94.5 5t84 14.5t78.5 24t77 32.5v-162q-40 -19 -78.5 -33 t-79 -23t-84 -13t-94.5 -4zM563 967q-114 0 -180.5 -78t-77.5 -227h492q0 68 -13.5 124.5t-42 96.5t-72.5 62t-106 22zM678 1241h-120q-35 28 -76 69.5t-79.5 85.5t-70 84.5t-47.5 67.5v21h219q16 -34 37.5 -74.5t44.5 -81t47 -78.5t45 -67v-27z" />
<glyph unicode="&#xe9;" horiz-adv-x="1096" d="M113 0zM608 -20q-110 0 -201 37t-156.5 108t-101.5 176t-36 240q0 136 33 243t93 181.5t143.5 113.5t184.5 39q99 0 178 -35.5t134 -100t84.5 -155t29.5 -200.5v-113h-692q5 -193 81.5 -284t227.5 -91q51 0 94.5 5t84 14.5t78.5 24t77 32.5v-162q-40 -19 -78.5 -33 t-79 -23t-84 -13t-94.5 -4zM563 967q-114 0 -180.5 -78t-77.5 -227h492q0 68 -13.5 124.5t-42 96.5t-72.5 62t-106 22zM475 1268q22 29 45.5 67t47 78.5t44.5 81t37 74.5h219v-21q-16 -27 -47.5 -67.5t-70 -84.5t-79 -85.5t-75.5 -69.5h-121v27z" />
<glyph unicode="&#xea;" horiz-adv-x="1096" d="M113 0zM608 -20q-110 0 -201 37t-156.5 108t-101.5 176t-36 240q0 136 33 243t93 181.5t143.5 113.5t184.5 39q99 0 178 -35.5t134 -100t84.5 -155t29.5 -200.5v-113h-692q5 -193 81.5 -284t227.5 -91q51 0 94.5 5t84 14.5t78.5 24t77 32.5v-162q-40 -19 -78.5 -33 t-79 -23t-84 -13t-94.5 -4zM563 967q-114 0 -180.5 -78t-77.5 -227h492q0 68 -13.5 124.5t-42 96.5t-72.5 62t-106 22zM888 1241h-121q-51 34 -105 82.5t-106 103.5q-54 -55 -107 -103.5t-104 -82.5h-121v27q26 29 60 67t67.5 78.5t63 81t45.5 74.5h192q16 -34 45.5 -74.5 t63 -81t68 -78.5t59.5 -67v-27z" />
<glyph unicode="&#xeb;" horiz-adv-x="1096" d="M113 0zM608 -20q-110 0 -201 37t-156.5 108t-101.5 176t-36 240q0 136 33 243t93 181.5t143.5 113.5t184.5 39q99 0 178 -35.5t134 -100t84.5 -155t29.5 -200.5v-113h-692q5 -193 81.5 -284t227.5 -91q51 0 94.5 5t84 14.5t78.5 24t77 32.5v-162q-40 -19 -78.5 -33 t-79 -23t-84 -13t-94.5 -4zM563 967q-114 0 -180.5 -78t-77.5 -227h492q0 68 -13.5 124.5t-42 96.5t-72.5 62t-106 22zM269 1395q0 54 28 78t68 24q39 0 68 -24.5t29 -77.5t-29 -78t-68 -25q-40 0 -68 25t-28 78zM644 1395q0 54 28 78t68 24q19 0 36.5 -6t30.5 -18.5 t21 -31.5t8 -46q0 -53 -29 -78t-67 -25q-40 0 -68 25t-28 78z" />
<glyph unicode="&#xec;" horiz-adv-x="530" d="M0 0zM356 0h-182v1098h182v-1098zM359 1241h-120q-35 28 -76 69.5t-79.5 85.5t-70 84.5t-47.5 67.5v21h219q16 -34 37.5 -74.5t44.5 -81t47 -78.5t45 -67v-27z" />
<glyph unicode="&#xed;" horiz-adv-x="530" d="M174 0zM356 0h-182v1098h182v-1098zM185 1268q22 29 45.5 67t47 78.5t44.5 81t37 74.5h219v-21q-16 -27 -47.5 -67.5t-70 -84.5t-79 -85.5t-75.5 -69.5h-121v27z" />
<glyph unicode="&#xee;" horiz-adv-x="530" d="M0 0zM356 0h-182v1098h182v-1098zM597 1241h-121q-51 34 -105 82.5t-106 103.5q-54 -55 -107 -103.5t-104 -82.5h-121v27q26 29 60 67t67.5 78.5t63 81t45.5 74.5h192q16 -34 45.5 -74.5t63 -81t68 -78.5t59.5 -67v-27z" />
<glyph unicode="&#xef;" horiz-adv-x="530" d="M0 0zM356 0h-182v1098h182v-1098zM-18 1395q0 54 28 78t68 24q39 0 68 -24.5t29 -77.5t-29 -78t-68 -25q-40 0 -68 25t-28 78zM357 1395q0 54 28 78t68 24q19 0 36.5 -6t30.5 -18.5t21 -31.5t8 -46q0 -53 -29 -78t-67 -25q-40 0 -68 25t-28 78z" />
<glyph unicode="&#xf0;" d="M1069 573q0 -142 -33.5 -252t-96 -186t-151.5 -115.5t-200 -39.5q-104 0 -191.5 33t-151 96.5t-99 156t-35.5 211.5t31.5 211t90.5 155t143 95.5t189 32.5q102 0 179 -29.5t120 -89.5l8 4q-31 118 -91 214t-150 177l-256 -153l-74 114l217 131q-40 28 -82.5 55.5 t-89.5 53.5l70 123q65 -32 126 -68t120 -80l227 138l74 -113l-195 -117q67 -65 122.5 -143t95 -171.5t61.5 -204t22 -239.5zM881 526q0 56 -17 109.5t-52 94.5t-90 66t-130 25q-77 0 -131.5 -23t-89.5 -67t-51.5 -109.5t-16.5 -150.5q0 -76 16.5 -138.5t52 -107.5t90 -69.5 t130.5 -24.5q154 0 221.5 99.5t67.5 295.5z" />
<glyph unicode="&#xf1;" horiz-adv-x="1206" d="M174 0zM860 0v707q0 130 -52.5 195t-164.5 65q-81 0 -136 -26t-88.5 -77t-48 -125t-14.5 -170v-569h-182v1098h148l26 -148h10q25 43 59.5 74.5t75.5 52.5t87 31t94 10q183 0 275.5 -95.5t92.5 -305.5v-717h-182zM759 1243q-40 0 -79.5 17.5t-77.5 39t-73 39t-67 17.5 q-45 0 -69 -26.5t-38 -88.5h-104q5 60 21.5 109t43 83.5t63.5 53t83 18.5q42 0 82.5 -17.5t78.5 -38.5t72.5 -38.5t63.5 -17.5q45 0 68 26t38 88h105q-5 -60 -21.5 -108.5t-43 -83t-63.5 -53.5t-83 -19z" />
<glyph unicode="&#xf2;" d="M113 0zM1069 551q0 -137 -33.5 -243.5t-96 -179t-151.5 -110.5t-200 -38q-103 0 -190 38t-150.5 110.5t-99 179t-35.5 243.5q0 136 33.5 241.5t95.5 178t151.5 110t200.5 37.5q103 0 190 -37.5t150.5 -110t99 -178t35.5 -241.5zM301 551q0 -209 68.5 -314.5t222.5 -105.5 t221.5 105.5t67.5 314.5t-68.5 312.5t-222.5 103.5t-221.5 -103.5t-67.5 -312.5zM746 1241h-120q-35 28 -76 69.5t-79.5 85.5t-70 84.5t-47.5 67.5v21h219q16 -34 37.5 -74.5t44.5 -81t47 -78.5t45 -67v-27z" />
<glyph unicode="&#xf3;" d="M113 0zM1069 551q0 -137 -33.5 -243.5t-96 -179t-151.5 -110.5t-200 -38q-103 0 -190 38t-150.5 110.5t-99 179t-35.5 243.5q0 136 33.5 241.5t95.5 178t151.5 110t200.5 37.5q103 0 190 -37.5t150.5 -110t99 -178t35.5 -241.5zM301 551q0 -209 68.5 -314.5t222.5 -105.5 t221.5 105.5t67.5 314.5t-68.5 312.5t-222.5 103.5t-221.5 -103.5t-67.5 -312.5zM473 1268q22 29 45.5 67t47 78.5t44.5 81t37 74.5h219v-21q-16 -27 -47.5 -67.5t-70 -84.5t-79 -85.5t-75.5 -69.5h-121v27z" />
<glyph unicode="&#xf4;" d="M113 0zM1069 551q0 -137 -33.5 -243.5t-96 -179t-151.5 -110.5t-200 -38q-103 0 -190 38t-150.5 110.5t-99 179t-35.5 243.5q0 136 33.5 241.5t95.5 178t151.5 110t200.5 37.5q103 0 190 -37.5t150.5 -110t99 -178t35.5 -241.5zM301 551q0 -209 68.5 -314.5t222.5 -105.5 t221.5 105.5t67.5 314.5t-68.5 312.5t-222.5 103.5t-221.5 -103.5t-67.5 -312.5zM917 1241h-121q-51 34 -105 82.5t-106 103.5q-54 -55 -107 -103.5t-104 -82.5h-121v27q26 29 60 67t67.5 78.5t63 81t45.5 74.5h192q16 -34 45.5 -74.5t63 -81t68 -78.5t59.5 -67v-27z" />
<glyph unicode="&#xf5;" d="M113 0zM1069 551q0 -137 -33.5 -243.5t-96 -179t-151.5 -110.5t-200 -38q-103 0 -190 38t-150.5 110.5t-99 179t-35.5 243.5q0 136 33.5 241.5t95.5 178t151.5 110t200.5 37.5q103 0 190 -37.5t150.5 -110t99 -178t35.5 -241.5zM301 551q0 -209 68.5 -314.5t222.5 -105.5 t221.5 105.5t67.5 314.5t-68.5 312.5t-222.5 103.5t-221.5 -103.5t-67.5 -312.5zM736 1243q-40 0 -79.5 17.5t-77.5 39t-73 39t-67 17.5q-45 0 -69 -26.5t-38 -88.5h-104q5 60 21.5 109t43 83.5t63.5 53t83 18.5q42 0 82.5 -17.5t78.5 -38.5t72.5 -38.5t63.5 -17.5 q45 0 68 26t38 88h105q-5 -60 -21.5 -108.5t-43 -83t-63.5 -53.5t-83 -19z" />
<glyph unicode="&#xf6;" d="M113 0zM1069 551q0 -137 -33.5 -243.5t-96 -179t-151.5 -110.5t-200 -38q-103 0 -190 38t-150.5 110.5t-99 179t-35.5 243.5q0 136 33.5 241.5t95.5 178t151.5 110t200.5 37.5q103 0 190 -37.5t150.5 -110t99 -178t35.5 -241.5zM301 551q0 -209 68.5 -314.5t222.5 -105.5 t221.5 105.5t67.5 314.5t-68.5 312.5t-222.5 103.5t-221.5 -103.5t-67.5 -312.5zM300 1395q0 54 28 78t68 24q39 0 68 -24.5t29 -77.5t-29 -78t-68 -25q-40 0 -68 25t-28 78zM675 1395q0 54 28 78t68 24q19 0 36.5 -6t30.5 -18.5t21 -31.5t8 -46q0 -53 -29 -78t-67 -25 q-40 0 -68 25t-28 78z" />
<glyph unicode="&#xf7;" horiz-adv-x="1128" d="M102 647v150h924v-150h-924zM449 373q0 35 9 58.5t24.5 38.5t36 21.5t44.5 6.5q23 0 44 -6.5t37 -21.5t25 -38.5t9 -58.5q0 -33 -9 -56.5t-25 -39t-37 -22.5t-44 -7q-24 0 -44.5 7t-36 22.5t-24.5 39t-9 56.5zM449 1071q0 35 9 58.5t24.5 38.5t36 21.5t44.5 6.5 q23 0 44 -6.5t37 -21.5t25 -38.5t9 -58.5q0 -33 -9 -56.5t-25 -39t-37 -22.5t-44 -7q-24 0 -44.5 7t-36 22.5t-24.5 39t-9 56.5z" />
<glyph unicode="&#xf8;" d="M1071 551q0 -137 -33.5 -243.5t-96 -179t-151.5 -110.5t-200 -38q-125 0 -223 53l-68 -109l-131 74l80 131q-63 72 -98 178.5t-35 243.5q0 136 33.5 241.5t95.5 178t151.5 110t200.5 37.5q63 0 119.5 -14.5t105.5 -42.5l68 108l131 -73l-80 -129q62 -73 96.5 -177.5 t34.5 -238.5zM303 551q0 -84 9.5 -149.5t31.5 -116.5l397 647q-29 17 -66.5 26t-82.5 9q-154 0 -221.5 -103.5t-67.5 -312.5zM883 551q0 159 -39 258l-398 -645q31 -17 67 -25t81 -8q154 0 221.5 105.5t67.5 314.5z" />
<glyph unicode="&#xf9;" horiz-adv-x="1206" d="M164 0zM885 0l-27 147h-10q-25 -43 -59.5 -74.5t-75.5 -52t-87 -30.5t-94 -10q-91 0 -160 23t-115 72t-69.5 125t-23.5 181v717h182v-707q0 -130 53 -195t164 -65q81 0 136 26t88.5 76.5t48 124.5t14.5 170v570h182v-1098h-147zM693 1241h-120q-35 28 -76 69.5 t-79.5 85.5t-70 84.5t-47.5 67.5v21h219q16 -34 37.5 -74.5t44.5 -81t47 -78.5t45 -67v-27z" />
<glyph unicode="&#xfa;" horiz-adv-x="1206" d="M164 0zM885 0l-27 147h-10q-25 -43 -59.5 -74.5t-75.5 -52t-87 -30.5t-94 -10q-91 0 -160 23t-115 72t-69.5 125t-23.5 181v717h182v-707q0 -130 53 -195t164 -65q81 0 136 26t88.5 76.5t48 124.5t14.5 170v570h182v-1098h-147zM489 1268q22 29 45.5 67t47 78.5t44.5 81 t37 74.5h219v-21q-16 -27 -47.5 -67.5t-70 -84.5t-79 -85.5t-75.5 -69.5h-121v27z" />
<glyph unicode="&#xfb;" horiz-adv-x="1206" d="M164 0zM885 0l-27 147h-10q-25 -43 -59.5 -74.5t-75.5 -52t-87 -30.5t-94 -10q-91 0 -160 23t-115 72t-69.5 125t-23.5 181v717h182v-707q0 -130 53 -195t164 -65q81 0 136 26t88.5 76.5t48 124.5t14.5 170v570h182v-1098h-147zM930 1241h-121q-51 34 -105 82.5 t-106 103.5q-54 -55 -107 -103.5t-104 -82.5h-121v27q26 29 60 67t67.5 78.5t63 81t45.5 74.5h192q16 -34 45.5 -74.5t63 -81t68 -78.5t59.5 -67v-27z" />
<glyph unicode="&#xfc;" horiz-adv-x="1206" d="M164 0zM885 0l-27 147h-10q-25 -43 -59.5 -74.5t-75.5 -52t-87 -30.5t-94 -10q-91 0 -160 23t-115 72t-69.5 125t-23.5 181v717h182v-707q0 -130 53 -195t164 -65q81 0 136 26t88.5 76.5t48 124.5t14.5 170v570h182v-1098h-147zM309 1395q0 54 28 78t68 24q39 0 68 -24.5 t29 -77.5t-29 -78t-68 -25q-40 0 -68 25t-28 78zM684 1395q0 54 28 78t68 24q19 0 36.5 -6t30.5 -18.5t21 -31.5t8 -46q0 -53 -29 -78t-67 -25q-40 0 -68 25t-28 78z" />
<glyph unicode="&#xfd;" horiz-adv-x="1001" d="M10 0zM10 1098h189l215 -613q14 -40 28.5 -84t27 -88t21.5 -85t13 -76h6q5 25 16 68t24.5 91.5t28 95.5t25.5 80l199 611h188l-434 -1241q-28 -81 -60.5 -145.5t-75.5 -109.5t-101 -69.5t-138 -24.5q-52 0 -90 5.5t-65 11.5v145q21 -5 53 -8.5t67 -3.5q48 0 83 11.5 t61 33.5t44.5 54t33.5 73l57 160zM407 1268q22 29 45.5 67t47 78.5t44.5 81t37 74.5h219v-21q-16 -27 -47.5 -67.5t-70 -84.5t-79 -85.5t-75.5 -69.5h-121v27z" />
<glyph unicode="&#xfe;" horiz-adv-x="1200" d="M356 950q23 35 52 65.5t67.5 53t86.5 36t108 13.5q94 0 171 -36t131.5 -107.5t84.5 -177.5t30 -246q0 -141 -30 -247.5t-84.5 -178.5t-131.5 -108.5t-171 -36.5q-59 0 -107 13t-86.5 34.5t-68 50.5t-52.5 61h-12q3 -34 6 -65q2 -26 4 -53.5t2 -43.5v-469h-182v2048h182 v-458l-8 -148h8zM635 967q-76 0 -128.5 -23t-85 -70t-48 -117t-17.5 -165v-41q0 -101 13.5 -179.5t46 -132t86.5 -81t135 -27.5q135 0 198.5 109t63.5 313q0 208 -63.5 311t-200.5 103z" />
<glyph unicode="&#xff;" horiz-adv-x="1001" d="M10 0zM10 1098h189l215 -613q14 -40 28.5 -84t27 -88t21.5 -85t13 -76h6q5 25 16 68t24.5 91.5t28 95.5t25.5 80l199 611h188l-434 -1241q-28 -81 -60.5 -145.5t-75.5 -109.5t-101 -69.5t-138 -24.5q-52 0 -90 5.5t-65 11.5v145q21 -5 53 -8.5t67 -3.5q48 0 83 11.5 t61 33.5t44.5 54t33.5 73l57 160zM228 1395q0 54 28 78t68 24q39 0 68 -24.5t29 -77.5t-29 -78t-68 -25q-40 0 -68 25t-28 78zM603 1395q0 54 28 78t68 24q19 0 36.5 -6t30.5 -18.5t21 -31.5t8 -46q0 -53 -29 -78t-67 -25q-40 0 -68 25t-28 78z" />
<glyph unicode="&#x100;" horiz-adv-x="1245" d="M0 0zM1055 0l-160 453h-545l-162 -453h-188l537 1468h170l538 -1468h-190zM836 618l-148 424q-6 18 -14.5 44t-17.5 56t-18 62.5t-17 63.5q-7 -31 -16 -64t-18 -63.5t-17.5 -56t-14.5 -42.5l-145 -424h426zM334 1729h575v-150h-575v150z" />
<glyph unicode="&#x101;" horiz-adv-x="1087" d="M94 0zM793 0l-37 152h-8q-33 -45 -66 -77.5t-72 -53.5t-87 -31t-111 -10q-69 0 -127 19.5t-100.5 60t-66.5 102t-24 145.5q0 164 115.5 252t351.5 96l184 7v69q0 67 -14.5 112t-42 72.5t-68 39.5t-92.5 12q-83 0 -154.5 -24t-137.5 -58l-64 137q74 40 165 68t191 28 q102 0 176.5 -20.5t123 -65t72.5 -113.5t24 -167v-752h-131zM459 127q61 0 113 19t90 57.5t59.5 97t21.5 137.5v99l-143 -7q-90 -4 -151 -20t-97.5 -44.5t-52.5 -69t-16 -91.5q0 -92 48.5 -135t127.5 -43zM257 1391h575v-150h-575v150z" />
<glyph unicode="&#x102;" horiz-adv-x="1245" d="M0 0zM1055 0l-160 453h-545l-162 -453h-188l537 1468h170l538 -1468h-190zM836 618l-148 424q-6 18 -14.5 44t-17.5 56t-18 62.5t-17 63.5q-7 -31 -16 -64t-18 -63.5t-17.5 -56t-14.5 -42.5l-145 -424h426zM924 1856q-4 -61 -26 -111.5t-60.5 -87.5t-93 -57.5 t-125.5 -20.5q-73 0 -127.5 19.5t-91 56t-56 87.5t-22.5 114h108q4 -43 18 -68t38 -37.5t57.5 -16t77.5 -3.5q36 0 68.5 4.5t58 18t42.5 38t21 64.5h113z" />
<glyph unicode="&#x103;" horiz-adv-x="1087" d="M94 0zM793 0l-37 152h-8q-33 -45 -66 -77.5t-72 -53.5t-87 -31t-111 -10q-69 0 -127 19.5t-100.5 60t-66.5 102t-24 145.5q0 164 115.5 252t351.5 96l184 7v69q0 67 -14.5 112t-42 72.5t-68 39.5t-92.5 12q-83 0 -154.5 -24t-137.5 -58l-64 137q74 40 165 68t191 28 q102 0 176.5 -20.5t123 -65t72.5 -113.5t24 -167v-752h-131zM459 127q61 0 113 19t90 57.5t59.5 97t21.5 137.5v99l-143 -7q-90 -4 -151 -20t-97.5 -44.5t-52.5 -69t-16 -91.5q0 -92 48.5 -135t127.5 -43zM847 1518q-4 -61 -26 -111.5t-60.5 -87.5t-93 -57.5t-125.5 -20.5 q-73 0 -127.5 19.5t-91 56t-56 87.5t-22.5 114h108q4 -43 18 -68t38 -37.5t57.5 -16t77.5 -3.5q36 0 68.5 4.5t58 18t42.5 38t21 64.5h113z" />
<glyph unicode="&#x104;" horiz-adv-x="1245" d="M0 0zM1055 0l-160 453h-545l-162 -453h-188l537 1468h170l538 -1468h-190zM836 618l-148 424q-6 18 -14.5 44t-17.5 56t-18 62.5t-17 63.5q-7 -31 -16 -64t-18 -63.5t-17.5 -56t-14.5 -42.5l-145 -424h426zM1046 -238q0 -45 26 -66.5t60 -21.5q25 0 47.5 2.5t36.5 6.5 v-113q-26 -8 -58 -12t-61 -4q-100 0 -150 52t-50 142q0 42 15 79.5t38.5 69.5t51.5 58t54 45h129q-139 -133 -139 -238z" />
<glyph unicode="&#x105;" horiz-adv-x="1087" d="M94 0zM793 0l-37 152h-8q-33 -45 -66 -77.5t-72 -53.5t-87 -31t-111 -10q-69 0 -127 19.5t-100.5 60t-66.5 102t-24 145.5q0 164 115.5 252t351.5 96l184 7v69q0 67 -14.5 112t-42 72.5t-68 39.5t-92.5 12q-83 0 -154.5 -24t-137.5 -58l-64 137q74 40 165 68t191 28 q102 0 176.5 -20.5t123 -65t72.5 -113.5t24 -167v-752h-131zM459 127q61 0 113 19t90 57.5t59.5 97t21.5 137.5v99l-143 -7q-90 -4 -151 -20t-97.5 -44.5t-52.5 -69t-16 -91.5q0 -92 48.5 -135t127.5 -43zM782 -238q0 -45 26 -66.5t60 -21.5q25 0 47.5 2.5t36.5 6.5v-113 q-26 -8 -58 -12t-61 -4q-100 0 -150 52t-50 142q0 42 15 79.5t38.5 69.5t51.5 58t54 45h129q-139 -133 -139 -238z" />
<glyph unicode="&#x106;" horiz-adv-x="1235" d="M125 0zM793 1319q-107 0 -194 -40.5t-148.5 -116.5t-95 -185t-33.5 -246q0 -141 29.5 -250.5t88.5 -184.5t147 -114t206 -39q89 0 169 17.5t158 40.5v-162q-39 -15 -78 -26.5t-81.5 -18.5t-91 -10.5t-107.5 -3.5q-164 0 -284 54t-198.5 153t-116.5 238t-38 308 q0 166 43.5 304t128 237t209.5 154t287 55q108 0 206 -22t177 -64l-78 -156q-63 32 -137 55t-168 23zM659 1606q22 29 45.5 67t47 78.5t44.5 81t37 74.5h219v-21q-16 -27 -47.5 -67.5t-70 -84.5t-79 -85.5t-75.5 -69.5h-121v27z" />
<glyph unicode="&#x107;" horiz-adv-x="948" d="M113 0zM594 -20q-101 0 -189 31.5t-153 100t-102 175t-37 256.5q0 157 38 266.5t104.5 178t155.5 99.5t191 31q78 0 152.5 -17t124.5 -42l-54 -154q-23 10 -51 19.5t-58 17t-59 12t-55 4.5q-157 0 -229 -100.5t-72 -312.5q0 -211 72.5 -308.5t220.5 -97.5 q81 0 146.5 18.5t119.5 43.5v-162q-54 -29 -115.5 -44t-150.5 -15zM467 1268q22 29 45.5 67t47 78.5t44.5 81t37 74.5h219v-21q-16 -27 -47.5 -67.5t-70 -84.5t-79 -85.5t-75.5 -69.5h-121v27z" />
<glyph unicode="&#x108;" horiz-adv-x="1235" d="M125 0zM793 1319q-107 0 -194 -40.5t-148.5 -116.5t-95 -185t-33.5 -246q0 -141 29.5 -250.5t88.5 -184.5t147 -114t206 -39q89 0 169 17.5t158 40.5v-162q-39 -15 -78 -26.5t-81.5 -18.5t-91 -10.5t-107.5 -3.5q-164 0 -284 54t-198.5 153t-116.5 238t-38 308 q0 166 43.5 304t128 237t209.5 154t287 55q108 0 206 -22t177 -64l-78 -156q-63 32 -137 55t-168 23zM1102 1579h-121q-51 34 -105 82.5t-106 103.5q-54 -55 -107 -103.5t-104 -82.5h-121v27q26 29 60 67t67.5 78.5t63 81t45.5 74.5h192q16 -34 45.5 -74.5t63 -81t68 -78.5 t59.5 -67v-27z" />
<glyph unicode="&#x109;" horiz-adv-x="948" d="M113 0zM594 -20q-101 0 -189 31.5t-153 100t-102 175t-37 256.5q0 157 38 266.5t104.5 178t155.5 99.5t191 31q78 0 152.5 -17t124.5 -42l-54 -154q-23 10 -51 19.5t-58 17t-59 12t-55 4.5q-157 0 -229 -100.5t-72 -312.5q0 -211 72.5 -308.5t220.5 -97.5 q81 0 146.5 18.5t119.5 43.5v-162q-54 -29 -115.5 -44t-150.5 -15zM911 1241h-121q-51 34 -105 82.5t-106 103.5q-54 -55 -107 -103.5t-104 -82.5h-121v27q26 29 60 67t67.5 78.5t63 81t45.5 74.5h192q16 -34 45.5 -74.5t63 -81t68 -78.5t59.5 -67v-27z" />
<glyph unicode="&#x10a;" horiz-adv-x="1235" d="M125 0zM793 1319q-107 0 -194 -40.5t-148.5 -116.5t-95 -185t-33.5 -246q0 -141 29.5 -250.5t88.5 -184.5t147 -114t206 -39q89 0 169 17.5t158 40.5v-162q-39 -15 -78 -26.5t-81.5 -18.5t-91 -10.5t-107.5 -3.5q-164 0 -284 54t-198.5 153t-116.5 238t-38 308 q0 166 43.5 304t128 237t209.5 154t287 55q108 0 206 -22t177 -64l-78 -156q-63 32 -137 55t-168 23zM672 1733q0 60 30.5 87t75.5 27q22 0 41.5 -6.5t34 -20.5t23 -35.5t8.5 -51.5q0 -58 -31.5 -86.5t-75.5 -28.5q-45 0 -75.5 28t-30.5 87z" />
<glyph unicode="&#x10b;" horiz-adv-x="948" d="M113 0zM594 -20q-101 0 -189 31.5t-153 100t-102 175t-37 256.5q0 157 38 266.5t104.5 178t155.5 99.5t191 31q78 0 152.5 -17t124.5 -42l-54 -154q-23 10 -51 19.5t-58 17t-59 12t-55 4.5q-157 0 -229 -100.5t-72 -312.5q0 -211 72.5 -308.5t220.5 -97.5 q81 0 146.5 18.5t119.5 43.5v-162q-54 -29 -115.5 -44t-150.5 -15zM467 1395q0 60 30.5 87t75.5 27q22 0 41.5 -6.5t34 -20.5t23 -35.5t8.5 -51.5q0 -58 -31.5 -86.5t-75.5 -28.5q-45 0 -75.5 28t-30.5 87z" />
<glyph unicode="&#x10c;" horiz-adv-x="1235" d="M125 0zM793 1319q-107 0 -194 -40.5t-148.5 -116.5t-95 -185t-33.5 -246q0 -141 29.5 -250.5t88.5 -184.5t147 -114t206 -39q89 0 169 17.5t158 40.5v-162q-39 -15 -78 -26.5t-81.5 -18.5t-91 -10.5t-107.5 -3.5q-164 0 -284 54t-198.5 153t-116.5 238t-38 308 q0 166 43.5 304t128 237t209.5 154t287 55q108 0 206 -22t177 -64l-78 -156q-63 32 -137 55t-168 23zM1090 1880q-25 -29 -59.5 -67t-68 -78.5t-63 -80.5t-45.5 -75h-192q-16 35 -45.5 75t-63 80.5t-67.5 78.5t-60 67v27h121q51 -34 104 -82.5t107 -104.5q52 56 106 104.5 t105 82.5h121v-27z" />
<glyph unicode="&#x10d;" horiz-adv-x="948" d="M113 0zM594 -20q-101 0 -189 31.5t-153 100t-102 175t-37 256.5q0 157 38 266.5t104.5 178t155.5 99.5t191 31q78 0 152.5 -17t124.5 -42l-54 -154q-23 10 -51 19.5t-58 17t-59 12t-55 4.5q-157 0 -229 -100.5t-72 -312.5q0 -211 72.5 -308.5t220.5 -97.5 q81 0 146.5 18.5t119.5 43.5v-162q-54 -29 -115.5 -44t-150.5 -15zM928 1542q-25 -29 -59.5 -67t-68 -78.5t-63 -80.5t-45.5 -75h-192q-16 35 -45.5 75t-63 80.5t-67.5 78.5t-60 67v27h121q51 -34 104 -82.5t107 -104.5q52 56 106 104.5t105 82.5h121v-27z" />
<glyph unicode="&#x10e;" horiz-adv-x="1401" d="M199 0zM1276 745q0 -185 -48 -324.5t-139 -233t-223.5 -140.5t-300.5 -47h-366v1462h407q153 0 277 -46t211 -136.5t134.5 -224.5t47.5 -310zM1079 739q0 146 -33 252.5t-96 175.5t-155 102.5t-209 33.5h-201v-1143h162q264 0 398 146t134 433zM996 1880 q-25 -29 -59.5 -67t-68 -78.5t-63 -80.5t-45.5 -75h-192q-16 35 -45.5 75t-63 80.5t-67.5 78.5t-60 67v27h121q51 -34 104 -82.5t107 -104.5q52 56 106 104.5t105 82.5h121v-27z" />
<glyph unicode="&#x10f;" horiz-adv-x="1200" d="M113 0zM852 147h-8q-22 -34 -51.5 -64.5t-68 -53.5t-86.5 -36t-108 -13q-93 0 -170 36t-132 107.5t-85 177.5t-30 246q0 141 30 247.5t85 178.5t132 108.5t170 36.5q59 0 107 -13t86.5 -35t68.5 -51t52 -61h12q-3 34 -6 65q-2 26 -4 53.5t-2 43.5v436h182v-1556h-147z M565 131q76 0 128.5 23t85 70t48 117.5t17.5 164.5v41q0 101 -13.5 179.5t-46 132t-86.5 81t-135 27.5q-135 0 -198.5 -109t-63.5 -313q0 -209 63.5 -311.5t200.5 -102.5zM1120 1255q9 30 18 68.5t17.5 79t15.5 80.5t11 73h180v-20q-6 -25 -21.5 -64t-36 -82t-43.5 -86 t-45 -75h-96v26z" />
<glyph unicode="&#x110;" horiz-adv-x="1401" d="M47 0zM47 805h152v657h407q153 0 277 -46t211 -136.5t134.5 -224.5t47.5 -310q0 -185 -48 -324.5t-139 -233t-223.5 -140.5t-300.5 -47h-366v643h-152v162zM1079 739q0 146 -33 252.5t-96 175.5t-155 102.5t-209 33.5h-201v-498h336v-162h-336v-483h162q264 0 398 146 t134 433z" />
<glyph unicode="&#x111;" horiz-adv-x="1200" d="M852 147h-8q-22 -34 -51.5 -64.5t-68 -53.5t-86.5 -36t-108 -13q-93 0 -170 35t-132 104t-85 171t-30 236q0 135 30 238t85 172.5t132 105t170 35.5q59 0 107 -12.5t86.5 -34.5t68.5 -51t52 -61h12q-3 33 -6 64q-2 26 -4 53.5t-2 43.5v158h-379v137h379v182h182v-182h156 v-137h-156v-1237h-147zM565 131q76 0 128.5 22t85 66.5t48 111t17.5 156.5v39q0 97 -13.5 171.5t-46 125.5t-86.5 77t-135 26q-135 0 -198.5 -103.5t-63.5 -298.5q0 -198 63.5 -295.5t200.5 -97.5z" />
<glyph unicode="&#x112;" horiz-adv-x="1081" d="M199 0zM958 0h-759v1462h759v-164h-573v-452h535v-162h-535v-520h573v-164zM293 1729h575v-150h-575v150z" />
<glyph unicode="&#x113;" horiz-adv-x="1096" d="M113 0zM608 -20q-110 0 -201 37t-156.5 108t-101.5 176t-36 240q0 136 33 243t93 181.5t143.5 113.5t184.5 39q99 0 178 -35.5t134 -100t84.5 -155t29.5 -200.5v-113h-692q5 -193 81.5 -284t227.5 -91q51 0 94.5 5t84 14.5t78.5 24t77 32.5v-162q-40 -19 -78.5 -33 t-79 -23t-84 -13t-94.5 -4zM563 967q-114 0 -180.5 -78t-77.5 -227h492q0 68 -13.5 124.5t-42 96.5t-72.5 62t-106 22zM283 1391h575v-150h-575v150z" />
<glyph unicode="&#x114;" horiz-adv-x="1081" d="M199 0zM958 0h-759v1462h759v-164h-573v-452h535v-162h-535v-520h573v-164zM886 1856q-4 -61 -26 -111.5t-60.5 -87.5t-93 -57.5t-125.5 -20.5q-73 0 -127.5 19.5t-91 56t-56 87.5t-22.5 114h108q4 -43 18 -68t38 -37.5t57.5 -16t77.5 -3.5q36 0 68.5 4.5t58 18t42.5 38 t21 64.5h113z" />
<glyph unicode="&#x115;" horiz-adv-x="1096" d="M113 0zM608 -20q-110 0 -201 37t-156.5 108t-101.5 176t-36 240q0 136 33 243t93 181.5t143.5 113.5t184.5 39q99 0 178 -35.5t134 -100t84.5 -155t29.5 -200.5v-113h-692q5 -193 81.5 -284t227.5 -91q51 0 94.5 5t84 14.5t78.5 24t77 32.5v-162q-40 -19 -78.5 -33 t-79 -23t-84 -13t-94.5 -4zM563 967q-114 0 -180.5 -78t-77.5 -227h492q0 68 -13.5 124.5t-42 96.5t-72.5 62t-106 22zM869 1518q-4 -61 -26 -111.5t-60.5 -87.5t-93 -57.5t-125.5 -20.5q-73 0 -127.5 19.5t-91 56t-56 87.5t-22.5 114h108q4 -43 18 -68t38 -37.5t57.5 -16 t77.5 -3.5q36 0 68.5 4.5t58 18t42.5 38t21 64.5h113z" />
<glyph unicode="&#x116;" horiz-adv-x="1081" d="M199 0zM958 0h-759v1462h759v-164h-573v-452h535v-162h-535v-520h573v-164zM479 1704q0 60 30.5 87t75.5 27q22 0 41.5 -6.5t34 -20.5t23 -35.5t8.5 -51.5q0 -58 -31.5 -86.5t-75.5 -28.5q-45 0 -75.5 28t-30.5 87z" />
<glyph unicode="&#x117;" horiz-adv-x="1096" d="M113 0zM608 -20q-110 0 -201 37t-156.5 108t-101.5 176t-36 240q0 136 33 243t93 181.5t143.5 113.5t184.5 39q99 0 178 -35.5t134 -100t84.5 -155t29.5 -200.5v-113h-692q5 -193 81.5 -284t227.5 -91q51 0 94.5 5t84 14.5t78.5 24t77 32.5v-162q-40 -19 -78.5 -33 t-79 -23t-84 -13t-94.5 -4zM563 967q-114 0 -180.5 -78t-77.5 -227h492q0 68 -13.5 124.5t-42 96.5t-72.5 62t-106 22zM459 1395q0 60 30.5 87t75.5 27q22 0 41.5 -6.5t34 -20.5t23 -35.5t8.5 -51.5q0 -58 -31.5 -86.5t-75.5 -28.5q-45 0 -75.5 28t-30.5 87z" />
<glyph unicode="&#x118;" horiz-adv-x="1081" d="M199 0zM958 0h-759v1462h759v-164h-573v-452h535v-162h-535v-520h573v-164zM725 -238q0 -45 26 -66.5t60 -21.5q25 0 47.5 2.5t36.5 6.5v-113q-26 -8 -58 -12t-61 -4q-100 0 -150 52t-50 142q0 42 15 79.5t38.5 69.5t51.5 58t54 45h129q-139 -133 -139 -238z" />
<glyph unicode="&#x119;" horiz-adv-x="1096" d="M113 0zM608 -20q-110 0 -201 37t-156.5 108t-101.5 176t-36 240q0 136 33 243t93 181.5t143.5 113.5t184.5 39q99 0 178 -35.5t134 -100t84.5 -155t29.5 -200.5v-113h-692q5 -193 81.5 -284t227.5 -91q51 0 94.5 5t84 14.5t78.5 24t77 32.5v-162q-40 -19 -78.5 -33 t-79 -23t-84 -13t-94.5 -4zM563 967q-114 0 -180.5 -78t-77.5 -227h492q0 68 -13.5 124.5t-42 96.5t-72.5 62t-106 22zM751 -207q0 -45 26 -66.5t60 -21.5q25 0 47.5 2.5t36.5 6.5v-113q-26 -8 -58 -12t-61 -4q-100 0 -150 52t-50 142q0 42 15 79.5t38.5 69.5t51.5 58t54 45 h129q-139 -133 -139 -238z" />
<glyph unicode="&#x11a;" horiz-adv-x="1081" d="M199 0zM958 0h-759v1462h759v-164h-573v-452h535v-162h-535v-520h573v-164zM915 1880q-25 -29 -59.5 -67t-68 -78.5t-63 -80.5t-45.5 -75h-192q-16 35 -45.5 75t-63 80.5t-67.5 78.5t-60 67v27h121q51 -34 104 -82.5t107 -104.5q52 56 106 104.5t105 82.5h121v-27z" />
<glyph unicode="&#x11b;" horiz-adv-x="1096" d="M113 0zM608 -20q-110 0 -201 37t-156.5 108t-101.5 176t-36 240q0 136 33 243t93 181.5t143.5 113.5t184.5 39q99 0 178 -35.5t134 -100t84.5 -155t29.5 -200.5v-113h-692q5 -193 81.5 -284t227.5 -91q51 0 94.5 5t84 14.5t78.5 24t77 32.5v-162q-40 -19 -78.5 -33 t-79 -23t-84 -13t-94.5 -4zM563 967q-114 0 -180.5 -78t-77.5 -227h492q0 68 -13.5 124.5t-42 96.5t-72.5 62t-106 22zM894 1542q-25 -29 -59.5 -67t-68 -78.5t-63 -80.5t-45.5 -75h-192q-16 35 -45.5 75t-63 80.5t-67.5 78.5t-60 67v27h121q51 -34 104 -82.5t107 -104.5 q52 56 106 104.5t105 82.5h121v-27z" />
<glyph unicode="&#x11c;" horiz-adv-x="1413" d="M125 0zM782 772h484v-717q-55 -18 -111 -32t-115 -23.5t-124 -14.5t-140 -5q-157 0 -278 52.5t-204 150t-126 237t-43 313.5q0 172 47.5 311t138.5 236.5t224.5 150t304.5 52.5q111 0 213 -22t190 -64l-72 -162q-36 17 -77.5 32t-85.5 26.5t-90.5 18.5t-92.5 7 q-122 0 -216 -40.5t-157.5 -116.5t-96.5 -185t-33 -246q0 -130 27.5 -238t87.5 -186t155 -121t229 -43q44 0 80.5 2.5t67.5 6.5t58.5 9.5t53.5 10.5v436h-299v164zM1137 1579h-121q-51 34 -105 82.5t-106 103.5q-54 -55 -107 -103.5t-104 -82.5h-121v27q26 29 60 67 t67.5 78.5t63 81t45.5 74.5h192q16 -34 45.5 -74.5t63 -81t68 -78.5t59.5 -67v-27z" />
<glyph unicode="&#x11d;" horiz-adv-x="1061" d="M37 0zM1020 1098v-113l-197 -27q28 -35 47 -89.5t19 -123.5q0 -76 -23.5 -140.5t-71 -111.5t-117.5 -73.5t-163 -26.5q-22 0 -44 0.5t-36 3.5q-17 -10 -33.5 -22.5t-30 -28.5t-22 -36t-8.5 -44q0 -27 12 -43.5t32.5 -25.5t48.5 -12t59 -3h176q93 0 157 -23.5t104.5 -63.5 t58.5 -94.5t18 -115.5q0 -88 -32.5 -158t-99.5 -118.5t-169.5 -74.5t-241.5 -26q-107 0 -187 21t-133 61t-79.5 96.5t-26.5 127.5q0 60 19.5 105.5t52.5 78.5t76.5 54t90.5 32q-42 19 -69 60t-27 94q0 61 32 105.5t101 86.5q-43 18 -78.5 49.5t-60 72t-38 88.5t-13.5 99 q0 89 25 159t74 119t122 75t170 26q37 0 76.5 -5.5t66.5 -14.5h363zM209 -180q0 -37 13 -69t42.5 -55t78 -36.5t120.5 -13.5q186 0 278.5 57.5t92.5 165.5q0 46 -12 75t-39.5 45.5t-72.5 22.5t-110 6h-176q-35 0 -73 -8t-69.5 -30t-52 -60.5t-20.5 -99.5zM301 745 q0 -115 54 -171t153 -56q100 0 151.5 55.5t51.5 174.5q0 123 -52.5 181t-152.5 58q-99 0 -152 -60t-53 -182zM864 1241h-121q-51 34 -105 82.5t-106 103.5q-54 -55 -107 -103.5t-104 -82.5h-121v27q26 29 60 67t67.5 78.5t63 81t45.5 74.5h192q16 -34 45.5 -74.5t63 -81 t68 -78.5t59.5 -67v-27z" />
<glyph unicode="&#x11e;" horiz-adv-x="1413" d="M125 0zM782 772h484v-717q-55 -18 -111 -32t-115 -23.5t-124 -14.5t-140 -5q-157 0 -278 52.5t-204 150t-126 237t-43 313.5q0 172 47.5 311t138.5 236.5t224.5 150t304.5 52.5q111 0 213 -22t190 -64l-72 -162q-36 17 -77.5 32t-85.5 26.5t-90.5 18.5t-92.5 7 q-122 0 -216 -40.5t-157.5 -116.5t-96.5 -185t-33 -246q0 -130 27.5 -238t87.5 -186t155 -121t229 -43q44 0 80.5 2.5t67.5 6.5t58.5 9.5t53.5 10.5v436h-299v164zM1092 1856q-4 -61 -26 -111.5t-60.5 -87.5t-93 -57.5t-125.5 -20.5q-73 0 -127.5 19.5t-91 56t-56 87.5 t-22.5 114h108q4 -43 18 -68t38 -37.5t57.5 -16t77.5 -3.5q36 0 68.5 4.5t58 18t42.5 38t21 64.5h113z" />
<glyph unicode="&#x11f;" horiz-adv-x="1061" d="M37 0zM1020 1098v-113l-197 -27q28 -35 47 -89.5t19 -123.5q0 -76 -23.5 -140.5t-71 -111.5t-117.5 -73.5t-163 -26.5q-22 0 -44 0.5t-36 3.5q-17 -10 -33.5 -22.5t-30 -28.5t-22 -36t-8.5 -44q0 -27 12 -43.5t32.5 -25.5t48.5 -12t59 -3h176q93 0 157 -23.5t104.5 -63.5 t58.5 -94.5t18 -115.5q0 -88 -32.5 -158t-99.5 -118.5t-169.5 -74.5t-241.5 -26q-107 0 -187 21t-133 61t-79.5 96.5t-26.5 127.5q0 60 19.5 105.5t52.5 78.5t76.5 54t90.5 32q-42 19 -69 60t-27 94q0 61 32 105.5t101 86.5q-43 18 -78.5 49.5t-60 72t-38 88.5t-13.5 99 q0 89 25 159t74 119t122 75t170 26q37 0 76.5 -5.5t66.5 -14.5h363zM209 -180q0 -37 13 -69t42.5 -55t78 -36.5t120.5 -13.5q186 0 278.5 57.5t92.5 165.5q0 46 -12 75t-39.5 45.5t-72.5 22.5t-110 6h-176q-35 0 -73 -8t-69.5 -30t-52 -60.5t-20.5 -99.5zM301 745 q0 -115 54 -171t153 -56q100 0 151.5 55.5t51.5 174.5q0 123 -52.5 181t-152.5 58q-99 0 -152 -60t-53 -182zM812 1518q-4 -61 -26 -111.5t-60.5 -87.5t-93 -57.5t-125.5 -20.5q-73 0 -127.5 19.5t-91 56t-56 87.5t-22.5 114h108q4 -43 18 -68t38 -37.5t57.5 -16t77.5 -3.5 q36 0 68.5 4.5t58 18t42.5 38t21 64.5h113z" />
<glyph unicode="&#x120;" horiz-adv-x="1413" d="M125 0zM782 772h484v-717q-55 -18 -111 -32t-115 -23.5t-124 -14.5t-140 -5q-157 0 -278 52.5t-204 150t-126 237t-43 313.5q0 172 47.5 311t138.5 236.5t224.5 150t304.5 52.5q111 0 213 -22t190 -64l-72 -162q-36 17 -77.5 32t-85.5 26.5t-90.5 18.5t-92.5 7 q-122 0 -216 -40.5t-157.5 -116.5t-96.5 -185t-33 -246q0 -130 27.5 -238t87.5 -186t155 -121t229 -43q44 0 80.5 2.5t67.5 6.5t58.5 9.5t53.5 10.5v436h-299v164zM684 1733q0 60 30.5 87t75.5 27q22 0 41.5 -6.5t34 -20.5t23 -35.5t8.5 -51.5q0 -58 -31.5 -86.5 t-75.5 -28.5q-45 0 -75.5 28t-30.5 87z" />
<glyph unicode="&#x121;" horiz-adv-x="1061" d="M37 0zM1020 1098v-113l-197 -27q28 -35 47 -89.5t19 -123.5q0 -76 -23.5 -140.5t-71 -111.5t-117.5 -73.5t-163 -26.5q-22 0 -44 0.5t-36 3.5q-17 -10 -33.5 -22.5t-30 -28.5t-22 -36t-8.5 -44q0 -27 12 -43.5t32.5 -25.5t48.5 -12t59 -3h176q93 0 157 -23.5t104.5 -63.5 t58.5 -94.5t18 -115.5q0 -88 -32.5 -158t-99.5 -118.5t-169.5 -74.5t-241.5 -26q-107 0 -187 21t-133 61t-79.5 96.5t-26.5 127.5q0 60 19.5 105.5t52.5 78.5t76.5 54t90.5 32q-42 19 -69 60t-27 94q0 61 32 105.5t101 86.5q-43 18 -78.5 49.5t-60 72t-38 88.5t-13.5 99 q0 89 25 159t74 119t122 75t170 26q37 0 76.5 -5.5t66.5 -14.5h363zM209 -180q0 -37 13 -69t42.5 -55t78 -36.5t120.5 -13.5q186 0 278.5 57.5t92.5 165.5q0 46 -12 75t-39.5 45.5t-72.5 22.5t-110 6h-176q-35 0 -73 -8t-69.5 -30t-52 -60.5t-20.5 -99.5zM301 745 q0 -115 54 -171t153 -56q100 0 151.5 55.5t51.5 174.5q0 123 -52.5 181t-152.5 58q-99 0 -152 -60t-53 -182zM402 1395q0 60 30.5 87t75.5 27q22 0 41.5 -6.5t34 -20.5t23 -35.5t8.5 -51.5q0 -58 -31.5 -86.5t-75.5 -28.5q-45 0 -75.5 28t-30.5 87z" />
<glyph unicode="&#x122;" horiz-adv-x="1413" d="M125 0zM782 772h484v-717q-55 -18 -111 -32t-115 -23.5t-124 -14.5t-140 -5q-157 0 -278 52.5t-204 150t-126 237t-43 313.5q0 172 47.5 311t138.5 236.5t224.5 150t304.5 52.5q111 0 213 -22t190 -64l-72 -162q-36 17 -77.5 32t-85.5 26.5t-90.5 18.5t-92.5 7 q-122 0 -216 -40.5t-157.5 -116.5t-96.5 -185t-33 -246q0 -130 27.5 -238t87.5 -186t155 -121t229 -43q44 0 80.5 2.5t67.5 6.5t58.5 9.5t53.5 10.5v436h-299v164zM646 -426q11 25 24 63t25 80t21.5 83.5t13.5 74.5h178v-20q-6 -25 -21.5 -63.5t-37.5 -82t-49 -86.5t-56 -76 h-98v27z" />
<glyph unicode="&#x123;" horiz-adv-x="1061" d="M37 0zM1020 1098v-113l-197 -27q28 -35 47 -89.5t19 -123.5q0 -76 -23.5 -140.5t-71 -111.5t-117.5 -73.5t-163 -26.5q-22 0 -44 0.5t-36 3.5q-17 -10 -33.5 -22.5t-30 -28.5t-22 -36t-8.5 -44q0 -27 12 -43.5t32.5 -25.5t48.5 -12t59 -3h176q93 0 157 -23.5t104.5 -63.5 t58.5 -94.5t18 -115.5q0 -88 -32.5 -158t-99.5 -118.5t-169.5 -74.5t-241.5 -26q-107 0 -187 21t-133 61t-79.5 96.5t-26.5 127.5q0 60 19.5 105.5t52.5 78.5t76.5 54t90.5 32q-42 19 -69 60t-27 94q0 61 32 105.5t101 86.5q-43 18 -78.5 49.5t-60 72t-38 88.5t-13.5 99 q0 89 25 159t74 119t122 75t170 26q37 0 76.5 -5.5t66.5 -14.5h363zM209 -180q0 -37 13 -69t42.5 -55t78 -36.5t120.5 -13.5q186 0 278.5 57.5t92.5 165.5q0 46 -12 75t-39.5 45.5t-72.5 22.5t-110 6h-176q-35 0 -73 -8t-69.5 -30t-52 -60.5t-20.5 -99.5zM301 745 q0 -115 54 -171t153 -56q100 0 151.5 55.5t51.5 174.5q0 123 -52.5 181t-152.5 58q-99 0 -152 -60t-53 -182zM688 1542q-12 -25 -25 -63t-25 -80t-21 -83.5t-13 -74.5h-178v21q5 24 20.5 63t38 82t50 86t55.5 76h98v-27z" />
<glyph unicode="&#x124;" horiz-adv-x="1436" d="M199 0zM1237 0h-186v682h-666v-682h-186v1462h186v-616h666v616h186v-1462zM1049 1579h-121q-51 34 -105 82.5t-106 103.5q-54 -55 -107 -103.5t-104 -82.5h-121v27q26 29 60 67t67.5 78.5t63 81t45.5 74.5h192q16 -34 45.5 -74.5t63 -81t68 -78.5t59.5 -67v-27z" />
<glyph unicode="&#x125;" horiz-adv-x="1206" d="M174 0zM860 0v707q0 130 -52.5 195t-164.5 65q-81 0 -136 -26t-88.5 -77t-48 -125t-14.5 -170v-569h-182v1556h182v-462l-8 -144h10q25 43 59.5 74.5t75.5 52.5t87 31t94 10q183 0 275.5 -95.5t92.5 -305.5v-717h-182zM965 1634h-121q-51 34 -105 82.5t-106 103.5 q-54 -55 -107 -103.5t-104 -82.5h-121v27q26 29 60 67t67.5 78.5t63 81t45.5 74.5h192q16 -34 45.5 -74.5t63 -81t68 -78.5t59.5 -67v-27z" />
<glyph unicode="&#x126;" horiz-adv-x="1436" d="M199 1219v243h186v-243h666v243h186v-243h199v-150h-199v-1069h-186v682h-666v-682h-186v1069h-199v150h199zM1051 846v223h-666v-223h666z" />
<glyph unicode="&#x127;" horiz-adv-x="1206" d="M860 0v666q0 130 -52.5 195t-164.5 65q-81 0 -136 -26t-88.5 -77t-48 -125t-14.5 -170v-528h-182v1237h-156v137h156v182h182v-182h379v-137h-379v-184l-8 -144h10q25 43 59.5 74.5t75.5 52.5t87 31t94 10q183 0 275.5 -95.5t92.5 -305.5v-676h-182z" />
<glyph unicode="&#x128;" horiz-adv-x="694" d="M0 0zM612 0h-530v102l172 41v1176l-172 41v102h530v-102l-172 -41v-1176l172 -41v-102zM497 1581q-40 0 -79.5 17.5t-77.5 39t-73 39t-67 17.5q-45 0 -69 -26.5t-38 -88.5h-104q5 60 21.5 109t43 83.5t63.5 53t83 18.5q42 0 82.5 -17.5t78.5 -38.5t72.5 -38.5t63.5 -17.5 q45 0 68 26t38 88h105q-5 -60 -21.5 -108.5t-43 -83t-63.5 -53.5t-83 -19z" />
<glyph unicode="&#x129;" horiz-adv-x="530" d="M0 0zM356 0h-182v1098h182v-1098zM415 1243q-40 0 -79.5 17.5t-77.5 39t-73 39t-67 17.5q-45 0 -69 -26.5t-38 -88.5h-104q5 60 21.5 109t43 83.5t63.5 53t83 18.5q42 0 82.5 -17.5t78.5 -38.5t72.5 -38.5t63.5 -17.5q45 0 68 26t38 88h105q-5 -60 -21.5 -108.5t-43 -83 t-63.5 -53.5t-83 -19z" />
<glyph unicode="&#x12a;" horiz-adv-x="694" d="M61 0zM612 0h-530v102l172 41v1176l-172 41v102h530v-102l-172 -41v-1176l172 -41v-102zM61 1729h575v-150h-575v150z" />
<glyph unicode="&#x12b;" horiz-adv-x="530" d="M0 0zM356 0h-182v1098h182v-1098zM-21 1391h575v-150h-575v150z" />
<glyph unicode="&#x12c;" horiz-adv-x="694" d="M48 0zM612 0h-530v102l172 41v1176l-172 41v102h530v-102l-172 -41v-1176l172 -41v-102zM650 1856q-4 -61 -26 -111.5t-60.5 -87.5t-93 -57.5t-125.5 -20.5q-73 0 -127.5 19.5t-91 56t-56 87.5t-22.5 114h108q4 -43 18 -68t38 -37.5t57.5 -16t77.5 -3.5q36 0 68.5 4.5 t58 18t42.5 38t21 64.5h113z" />
<glyph unicode="&#x12d;" horiz-adv-x="530" d="M0 0zM356 0h-182v1098h182v-1098zM568 1518q-4 -61 -26 -111.5t-60.5 -87.5t-93 -57.5t-125.5 -20.5q-73 0 -127.5 19.5t-91 56t-56 87.5t-22.5 114h108q4 -43 18 -68t38 -37.5t57.5 -16t77.5 -3.5q36 0 68.5 4.5t58 18t42.5 38t21 64.5h113z" />
<glyph unicode="&#x12e;" horiz-adv-x="694" d="M82 0zM612 0h-530v102l172 41v1176l-172 41v102h530v-102l-172 -41v-1176l172 -41v-102zM336 -238q0 -45 26 -66.5t60 -21.5q25 0 47.5 2.5t36.5 6.5v-113q-26 -8 -58 -12t-61 -4q-100 0 -150 52t-50 142q0 42 15 79.5t38.5 69.5t51.5 58t54 45h129q-139 -133 -139 -238z " />
<glyph unicode="&#x12f;" horiz-adv-x="530" d="M68 0zM356 0h-182v1098h182v-1098zM160 1395q0 60 30.5 87t75.5 27q22 0 41.5 -6.5t34 -20.5t23 -35.5t8.5 -51.5q0 -58 -31.5 -86.5t-75.5 -28.5q-45 0 -75.5 28t-30.5 87zM217 -238q0 -45 26 -66.5t60 -21.5q25 0 47.5 2.5t36.5 6.5v-113q-26 -8 -58 -12t-61 -4 q-100 0 -150 52t-50 142q0 42 15 79.5t38.5 69.5t51.5 58t54 45h129q-139 -133 -139 -238z" />
<glyph unicode="&#x130;" horiz-adv-x="694" d="M82 0zM612 0h-530v102l172 41v1176l-172 41v102h530v-102l-172 -41v-1176l172 -41v-102zM240 1733q0 60 30.5 87t75.5 27q22 0 41.5 -6.5t34 -20.5t23 -35.5t8.5 -51.5q0 -58 -31.5 -86.5t-75.5 -28.5q-45 0 -75.5 28t-30.5 87z" />
<glyph unicode="&#x131;" horiz-adv-x="530" d="M356 0h-182v1098h182v-1098z" />
<glyph unicode="&#x132;" horiz-adv-x="1249" d="M82 0zM612 0h-530v102l172 41v1176l-172 41v102h530v-102l-172 -41v-1176l172 -41v-102zM665 -389q-51 0 -89 6.5t-66 17.5v160q34 -9 73 -14.5t84 -5.5q37 0 74.5 9.5t68 34.5t49.5 69t19 112v1462h187v-1442q0 -105 -29.5 -182t-82 -127.5t-126 -75t-162.5 -24.5z" />
<glyph unicode="&#x133;" horiz-adv-x="1061" d="M160 0zM356 0h-182v1098h182v-1098zM160 1395q0 60 30.5 87t75.5 27q22 0 41.5 -6.5t34 -20.5t23 -35.5t8.5 -51.5q0 -58 -31.5 -86.5t-75.5 -28.5q-45 0 -75.5 28t-30.5 87zM596 -492q-48 0 -79.5 7t-54.5 18v148q26 -10 53 -15.5t62 -5.5q27 0 50 7.5t40.5 27t27 52 t9.5 83.5v1268h182v-1256q0 -77 -17 -138.5t-53 -105t-90.5 -67t-129.5 -23.5zM690 1395q0 60 30.5 87t75.5 27q22 0 41.5 -6.5t34 -20.5t23 -35.5t8.5 -51.5q0 -58 -31.5 -86.5t-75.5 -28.5q-45 0 -75.5 28t-30.5 87z" />
<glyph unicode="&#x134;" horiz-adv-x="555" d="M0 0zM-29 -389q-51 0 -89 6.5t-66 17.5v160q34 -9 73 -14.5t84 -5.5q37 0 74.5 9.5t68 34.5t49.5 69t19 112v1462h187v-1442q0 -105 -29.5 -182t-82 -127.5t-126 -75t-162.5 -24.5zM612 1579h-121q-51 34 -105 82.5t-106 103.5q-54 -55 -107 -103.5t-104 -82.5h-121v27 q26 29 60 67t67.5 78.5t63 81t45.5 74.5h192q16 -34 45.5 -74.5t63 -81t68 -78.5t59.5 -67v-27z" />
<glyph unicode="&#x135;" horiz-adv-x="530" d="M66 -492q-48 0 -79.5 7t-54.5 18v148q26 -10 53 -15.5t62 -5.5q27 0 50 7.5t40.5 27t27 52t9.5 83.5v1268h182v-1256q0 -77 -17 -138.5t-53 -105t-90.5 -67t-129.5 -23.5zM599 1241h-121q-51 34 -105 82.5t-106 103.5q-54 -55 -107 -103.5t-104 -82.5h-121v27 q26 29 60 67t67.5 78.5t63 81t45.5 74.5h192q16 -34 45.5 -74.5t63 -81t68 -78.5t59.5 -67v-27z" />
<glyph unicode="&#x136;" horiz-adv-x="1186" d="M199 0zM1186 0h-211l-451 698l-139 -114v-584h-186v1462h186v-731l121 168l452 563h209l-520 -637zM482 -426q11 25 24 63t25 80t21.5 83.5t13.5 74.5h178v-20q-6 -25 -21.5 -63.5t-37.5 -82t-49 -86.5t-56 -76h-98v27z" />
<glyph unicode="&#x137;" horiz-adv-x="1016" d="M174 0zM342 567l135 170l293 361h211l-401 -475l428 -623h-209l-336 504l-109 -82v-422h-180v1556h180v-714l-16 -275h4zM400 -426q11 25 24 63t25 80t21.5 83.5t13.5 74.5h178v-20q-6 -25 -21.5 -63.5t-37.5 -82t-49 -86.5t-56 -76h-98v27z" />
<glyph unicode="&#x138;" horiz-adv-x="1016" d="M803 0l-340 489l-109 -81v-408h-180v1098h180v-281q0 -60 -2.5 -111t-5.5 -89q-4 -44 -8 -80l131 176l307 385h205l-401 -490l428 -608h-205z" />
<glyph unicode="&#x139;" horiz-adv-x="1006" d="M199 0zM199 0v1462h186v-1296h573v-166h-759zM238 1606q22 29 45.5 67t47 78.5t44.5 81t37 74.5h219v-21q-16 -27 -47.5 -67.5t-70 -84.5t-79 -85.5t-75.5 -69.5h-121v27z" />
<glyph unicode="&#x13a;" horiz-adv-x="530" d="M171 0zM356 0h-182v1556h182v-1556zM171 1663q22 29 45.5 67t47 78.5t44.5 81t37 74.5h219v-21q-16 -27 -47.5 -67.5t-70 -84.5t-79 -85.5t-75.5 -69.5h-121v27z" />
<glyph unicode="&#x13b;" horiz-adv-x="1006" d="M199 0zM199 0v1462h186v-1296h573v-166h-759zM412 -426q11 25 24 63t25 80t21.5 83.5t13.5 74.5h178v-20q-6 -25 -21.5 -63.5t-37.5 -82t-49 -86.5t-56 -76h-98v27z" />
<glyph unicode="&#x13c;" horiz-adv-x="530" d="M102 0zM356 0h-182v1556h182v-1556zM102 -426q11 25 24 63t25 80t21.5 83.5t13.5 74.5h178v-20q-6 -25 -21.5 -63.5t-37.5 -82t-49 -86.5t-56 -76h-98v27z" />
<glyph unicode="&#x13d;" horiz-adv-x="1006" d="M199 0zM199 0v1462h186v-1296h573v-166h-759zM647 1162q9 30 18 68.5t17.5 79t15.5 80.5t11 73h180v-20q-6 -25 -21.5 -64t-36 -82t-43.5 -86t-45 -75h-96v26z" />
<glyph unicode="&#x13e;" horiz-adv-x="530" d="M174 0zM356 0h-182v1556h182v-1556zM450 1255q9 30 18 68.5t17.5 79t15.5 80.5t11 73h180v-20q-6 -25 -21.5 -64t-36 -82t-43.5 -86t-45 -75h-96v26z" />
<glyph unicode="&#x13f;" horiz-adv-x="1006" d="M199 0zM199 0v1462h186v-1296h573v-166h-759zM643 728q0 60 30.5 87t75.5 27q22 0 41.5 -6.5t34 -20.5t23 -35.5t8.5 -51.5q0 -58 -31.5 -86.5t-75.5 -28.5q-45 0 -75.5 28t-30.5 87z" />
<glyph unicode="&#x140;" horiz-adv-x="614" d="M174 0zM356 0h-182v1556h182v-1556zM461 683q0 60 30.5 87t75.5 27q22 0 41.5 -6.5t34 -20.5t23 -35.5t8.5 -51.5q0 -58 -31.5 -86.5t-75.5 -28.5q-45 0 -75.5 28t-30.5 87z" />
<glyph unicode="&#x141;" horiz-adv-x="1006" d="M199 676v786h186v-669l227 143l78 -125l-305 -190v-455h573v-166h-759v504l-97 -60l-73 125z" />
<glyph unicode="&#x142;" horiz-adv-x="530" d="M174 758v798h182v-679l107 69l78 -121l-185 -120v-705h-182v586l-106 -70l-78 121z" />
<glyph unicode="&#x143;" horiz-adv-x="1493" d="M199 0zM1294 0h-215l-719 1210h-8q6 -77 10 -153q4 -65 6.5 -136t2.5 -128v-793h-172v1462h213l716 -1204h7q-3 76 -7 150q-1 32 -2.5 65.5l-3 67t-2 64.5t-0.5 57v800h174v-1462zM635 1606q22 29 45.5 67t47 78.5t44.5 81t37 74.5h219v-21q-16 -27 -47.5 -67.5 t-70 -84.5t-79 -85.5t-75.5 -69.5h-121v27z" />
<glyph unicode="&#x144;" horiz-adv-x="1206" d="M174 0zM860 0v707q0 130 -52.5 195t-164.5 65q-81 0 -136 -26t-88.5 -77t-48 -125t-14.5 -170v-569h-182v1098h148l26 -148h10q25 43 59.5 74.5t75.5 52.5t87 31t94 10q183 0 275.5 -95.5t92.5 -305.5v-717h-182zM504 1268q22 29 45.5 67t47 78.5t44.5 81t37 74.5h219 v-21q-16 -27 -47.5 -67.5t-70 -84.5t-79 -85.5t-75.5 -69.5h-121v27z" />
<glyph unicode="&#x145;" horiz-adv-x="1493" d="M199 0zM1294 0h-215l-719 1210h-8q6 -77 10 -153q4 -65 6.5 -136t2.5 -128v-793h-172v1462h213l716 -1204h7q-3 76 -7 150q-1 32 -2.5 65.5l-3 67t-2 64.5t-0.5 57v800h174v-1462zM584 -426q11 25 24 63t25 80t21.5 83.5t13.5 74.5h178v-20q-6 -25 -21.5 -63.5t-37.5 -82 t-49 -86.5t-56 -76h-98v27z" />
<glyph unicode="&#x146;" horiz-adv-x="1206" d="M174 0zM860 0v707q0 130 -52.5 195t-164.5 65q-81 0 -136 -26t-88.5 -77t-48 -125t-14.5 -170v-569h-182v1098h148l26 -148h10q25 43 59.5 74.5t75.5 52.5t87 31t94 10q183 0 275.5 -95.5t92.5 -305.5v-717h-182zM443 -426q11 25 24 63t25 80t21.5 83.5t13.5 74.5h178 v-20q-6 -25 -21.5 -63.5t-37.5 -82t-49 -86.5t-56 -76h-98v27z" />
<glyph unicode="&#x147;" horiz-adv-x="1493" d="M199 0zM1294 0h-215l-719 1210h-8q6 -77 10 -153q4 -65 6.5 -136t2.5 -128v-793h-172v1462h213l716 -1204h7q-3 76 -7 150q-1 32 -2.5 65.5l-3 67t-2 64.5t-0.5 57v800h174v-1462zM1078 1880q-25 -29 -59.5 -67t-68 -78.5t-63 -80.5t-45.5 -75h-192q-16 35 -45.5 75 t-63 80.5t-67.5 78.5t-60 67v27h121q51 -34 104 -82.5t107 -104.5q52 56 106 104.5t105 82.5h121v-27z" />
<glyph unicode="&#x148;" horiz-adv-x="1206" d="M174 0zM860 0v707q0 130 -52.5 195t-164.5 65q-81 0 -136 -26t-88.5 -77t-48 -125t-14.5 -170v-569h-182v1098h148l26 -148h10q25 43 59.5 74.5t75.5 52.5t87 31t94 10q183 0 275.5 -95.5t92.5 -305.5v-717h-182zM934 1542q-25 -29 -59.5 -67t-68 -78.5t-63 -80.5 t-45.5 -75h-192q-16 35 -45.5 75t-63 80.5t-67.5 78.5t-60 67v27h121q51 -34 104 -82.5t107 -104.5q52 56 106 104.5t105 82.5h121v-27z" />
<glyph unicode="&#x149;" horiz-adv-x="1350" d="M0 0zM1003 0v707q0 130 -52.5 195t-164.5 65q-81 0 -136 -26t-88.5 -77t-48 -125t-14.5 -170v-569h-182v1098h148l26 -148h10q25 43 59.5 74.5t75.5 52.5t87 31t94 10q183 0 275.5 -95.5t92.5 -305.5v-717h-182zM298 1462l14 -22q-14 -55 -33.5 -115.5t-43 -123 t-49 -123.5t-50.5 -117h-137q14 60 28.5 126t28 132t24.5 128t19 115h199z" />
<glyph unicode="&#x14a;" horiz-adv-x="1493" d="M907 -389q-51 0 -89.5 6.5t-65.5 17.5v160q34 -9 73 -14.5t84 -5.5q37 0 74.5 9.5t68 34.5t49.5 69t19 112l-760 1210h-8q6 -77 10 -153q4 -65 6.5 -136t2.5 -128v-793h-172v1462h213l716 -1163h7q-3 65 -7 130q-3 56 -5.5 118.5t-2.5 114.5v800h174v-1442 q0 -105 -27.5 -182t-77.5 -127.5t-121.5 -75t-160.5 -24.5z" />
<glyph unicode="&#x14b;" horiz-adv-x="1206" d="M750 -492q-48 0 -79.5 7t-54.5 18v148q26 -10 53 -15.5t62 -5.5q27 0 50 7.5t40.5 27t27 52t9.5 83.5l2 877q0 130 -52.5 195t-164.5 65q-81 0 -136 -26t-88.5 -77t-48 -125t-14.5 -170v-569h-182v1098h148l26 -148h10q25 43 59.5 74.5t75.5 52.5t87 31t94 10 q183 0 275.5 -95.5t92.5 -305.5l-2 -875q0 -77 -17 -138.5t-53 -105t-90.5 -67t-129.5 -23.5z" />
<glyph unicode="&#x14c;" horiz-adv-x="1520" d="M125 0zM1393 733q0 -169 -40.5 -308t-120.5 -238t-198.5 -153t-273.5 -54q-163 0 -282.5 54t-198 153t-116.5 238.5t-38 309.5t38 308.5t117 236.5t199 151.5t283 53.5q155 0 272.5 -53.5t197.5 -152t120.5 -237t40.5 -309.5zM322 733q0 -137 26 -246.5t79.5 -186 t136 -117t196.5 -40.5t196.5 40.5t136 117t78.5 186t25 246.5q0 138 -25 247t-78 184.5t-135 116t-196 40.5t-197 -40.5t-137 -116t-80 -184.5t-26 -247zM471 1729h575v-150h-575v150z" />
<glyph unicode="&#x14d;" d="M113 0zM1069 551q0 -137 -33.5 -243.5t-96 -179t-151.5 -110.5t-200 -38q-103 0 -190 38t-150.5 110.5t-99 179t-35.5 243.5q0 136 33.5 241.5t95.5 178t151.5 110t200.5 37.5q103 0 190 -37.5t150.5 -110t99 -178t35.5 -241.5zM301 551q0 -209 68.5 -314.5t222.5 -105.5 t221.5 105.5t67.5 314.5t-68.5 312.5t-222.5 103.5t-221.5 -103.5t-67.5 -312.5zM303 1391h575v-150h-575v150z" />
<glyph unicode="&#x14e;" horiz-adv-x="1520" d="M125 0zM1393 733q0 -169 -40.5 -308t-120.5 -238t-198.5 -153t-273.5 -54q-163 0 -282.5 54t-198 153t-116.5 238.5t-38 309.5t38 308.5t117 236.5t199 151.5t283 53.5q155 0 272.5 -53.5t197.5 -152t120.5 -237t40.5 -309.5zM322 733q0 -137 26 -246.5t79.5 -186 t136 -117t196.5 -40.5t196.5 40.5t136 117t78.5 186t25 246.5q0 138 -25 247t-78 184.5t-135 116t-196 40.5t-197 -40.5t-137 -116t-80 -184.5t-26 -247zM1061 1856q-4 -61 -26 -111.5t-60.5 -87.5t-93 -57.5t-125.5 -20.5q-73 0 -127.5 19.5t-91 56t-56 87.5t-22.5 114h108 q4 -43 18 -68t38 -37.5t57.5 -16t77.5 -3.5q36 0 68.5 4.5t58 18t42.5 38t21 64.5h113z" />
<glyph unicode="&#x14f;" d="M113 0zM1069 551q0 -137 -33.5 -243.5t-96 -179t-151.5 -110.5t-200 -38q-103 0 -190 38t-150.5 110.5t-99 179t-35.5 243.5q0 136 33.5 241.5t95.5 178t151.5 110t200.5 37.5q103 0 190 -37.5t150.5 -110t99 -178t35.5 -241.5zM301 551q0 -209 68.5 -314.5t222.5 -105.5 t221.5 105.5t67.5 314.5t-68.5 312.5t-222.5 103.5t-221.5 -103.5t-67.5 -312.5zM891 1518q-4 -61 -26 -111.5t-60.5 -87.5t-93 -57.5t-125.5 -20.5q-73 0 -127.5 19.5t-91 56t-56 87.5t-22.5 114h108q4 -43 18 -68t38 -37.5t57.5 -16t77.5 -3.5q36 0 68.5 4.5t58 18 t42.5 38t21 64.5h113z" />
<glyph unicode="&#x150;" horiz-adv-x="1520" d="M125 0zM1393 733q0 -169 -40.5 -308t-120.5 -238t-198.5 -153t-273.5 -54q-163 0 -282.5 54t-198 153t-116.5 238.5t-38 309.5t38 308.5t117 236.5t199 151.5t283 53.5q155 0 272.5 -53.5t197.5 -152t120.5 -237t40.5 -309.5zM322 733q0 -137 26 -246.5t79.5 -186 t136 -117t196.5 -40.5t196.5 40.5t136 117t78.5 186t25 246.5q0 138 -25 247t-78 184.5t-135 116t-196 40.5t-197 -40.5t-137 -116t-80 -184.5t-26 -247zM459 1606q22 29 45.5 67t47 78.5t44.5 81t37 74.5h199v-21q-16 -27 -47.5 -67.5t-70 -84.5t-79 -85.5t-75.5 -69.5 h-101v27zM822 1606q21 29 45 67t47.5 78.5t44.5 81t37 74.5h198v-21q-16 -27 -47.5 -67.5t-70 -84.5t-79 -85.5t-75.5 -69.5h-100v27z" />
<glyph unicode="&#x151;" d="M113 0zM1069 551q0 -137 -33.5 -243.5t-96 -179t-151.5 -110.5t-200 -38q-103 0 -190 38t-150.5 110.5t-99 179t-35.5 243.5q0 136 33.5 241.5t95.5 178t151.5 110t200.5 37.5q103 0 190 -37.5t150.5 -110t99 -178t35.5 -241.5zM301 551q0 -209 68.5 -314.5t222.5 -105.5 t221.5 105.5t67.5 314.5t-68.5 312.5t-222.5 103.5t-221.5 -103.5t-67.5 -312.5zM293 1268q22 29 45.5 67t47 78.5t44.5 81t37 74.5h199v-21q-16 -27 -47.5 -67.5t-70 -84.5t-79 -85.5t-75.5 -69.5h-101v27zM656 1268q21 29 45 67t47.5 78.5t44.5 81t37 74.5h198v-21 q-16 -27 -47.5 -67.5t-70 -84.5t-79 -85.5t-75.5 -69.5h-100v27z" />
<glyph unicode="&#x152;" horiz-adv-x="1823" d="M1700 0h-758q-43 -9 -88.5 -14.5t-93.5 -5.5q-163 0 -282.5 54t-198 153t-116.5 238.5t-38 309.5t38 308.5t117 236.5t199 151.5t283 53.5q98 0 182 -23h756v-164h-574v-452h535v-162h-535v-520h574v-164zM762 1321q-114 0 -197 -40.5t-137 -116t-80 -184.5t-26 -247 q0 -137 26 -246.5t79.5 -186t136 -117t196.5 -40.5q52 0 97 9t83 24v1112q-38 16 -82.5 24.5t-95.5 8.5z" />
<glyph unicode="&#x153;" horiz-adv-x="1864" d="M1376 -20q-130 0 -232 56t-167 165q-63 -109 -162 -165t-227 -56q-103 0 -190 38t-150.5 110.5t-99 179t-35.5 243.5q0 136 33.5 241.5t95.5 178t151.5 110t200.5 37.5q121 0 218.5 -55.5t160.5 -161.5q60 105 152.5 161t209.5 56q99 0 178 -35.5t134 -100t84.5 -155 t29.5 -200.5v-113h-692q5 -193 81.5 -284t227.5 -91q51 0 94.5 5t84 14.5t78.5 24t77 32.5v-162q-40 -19 -78.5 -33t-79 -23t-84 -13t-94.5 -4zM301 551q0 -209 68.5 -314.5t222.5 -105.5q150 0 219.5 100.5t69.5 309.5q0 220 -70 323t-221 103q-154 0 -221.5 -103.5 t-67.5 -312.5zM1565 662q0 68 -13.5 124.5t-42 96.5t-72.5 62t-106 22q-114 0 -180.5 -78t-77.5 -227h492z" />
<glyph unicode="&#x154;" horiz-adv-x="1208" d="M199 0zM385 604v-604h-186v1462h356q266 0 393 -103t127 -312q0 -87 -24.5 -152t-65 -111.5t-92.5 -77.5t-107 -51l398 -655h-219l-351 604h-229zM385 762h164q90 0 153 17.5t103.5 52t59 86t18.5 120.5q0 72 -20.5 122t-62 82t-105 46.5t-150.5 14.5h-160v-541z M477 1606q22 29 45.5 67t47 78.5t44.5 81t37 74.5h219v-21q-16 -27 -47.5 -67.5t-70 -84.5t-79 -85.5t-75.5 -69.5h-121v27z" />
<glyph unicode="&#x155;" horiz-adv-x="817" d="M174 0zM649 1118q29 0 65 -2.5t62 -7.5l-24 -168q-28 5 -57.5 8.5t-55.5 3.5q-63 0 -115 -25.5t-89.5 -73t-58 -114t-20.5 -147.5v-592h-182v1098h148l22 -201h8q25 43 53.5 83t64 70.5t79.5 49t100 18.5zM343 1268q22 29 45.5 67t47 78.5t44.5 81t37 74.5h219v-21 q-16 -27 -47.5 -67.5t-70 -84.5t-79 -85.5t-75.5 -69.5h-121v27z" />
<glyph unicode="&#x156;" horiz-adv-x="1208" d="M199 0zM385 604v-604h-186v1462h356q266 0 393 -103t127 -312q0 -87 -24.5 -152t-65 -111.5t-92.5 -77.5t-107 -51l398 -655h-219l-351 604h-229zM385 762h164q90 0 153 17.5t103.5 52t59 86t18.5 120.5q0 72 -20.5 122t-62 82t-105 46.5t-150.5 14.5h-160v-541z M486 -426q11 25 24 63t25 80t21.5 83.5t13.5 74.5h178v-20q-6 -25 -21.5 -63.5t-37.5 -82t-49 -86.5t-56 -76h-98v27z" />
<glyph unicode="&#x157;" horiz-adv-x="817" d="M96 0zM649 1118q29 0 65 -2.5t62 -7.5l-24 -168q-28 5 -57.5 8.5t-55.5 3.5q-63 0 -115 -25.5t-89.5 -73t-58 -114t-20.5 -147.5v-592h-182v1098h148l22 -201h8q25 43 53.5 83t64 70.5t79.5 49t100 18.5zM96 -426q11 25 24 63t25 80t21.5 83.5t13.5 74.5h178v-20 q-6 -25 -21.5 -63.5t-37.5 -82t-49 -86.5t-56 -76h-98v27z" />
<glyph unicode="&#x158;" horiz-adv-x="1208" d="M199 0zM385 604v-604h-186v1462h356q266 0 393 -103t127 -312q0 -87 -24.5 -152t-65 -111.5t-92.5 -77.5t-107 -51l398 -655h-219l-351 604h-229zM385 762h164q90 0 153 17.5t103.5 52t59 86t18.5 120.5q0 72 -20.5 122t-62 82t-105 46.5t-150.5 14.5h-160v-541z M936 1880q-25 -29 -59.5 -67t-68 -78.5t-63 -80.5t-45.5 -75h-192q-16 35 -45.5 75t-63 80.5t-67.5 78.5t-60 67v27h121q51 -34 104 -82.5t107 -104.5q52 56 106 104.5t105 82.5h121v-27z" />
<glyph unicode="&#x159;" horiz-adv-x="817" d="M114 0zM649 1118q29 0 65 -2.5t62 -7.5l-24 -168q-28 5 -57.5 8.5t-55.5 3.5q-63 0 -115 -25.5t-89.5 -73t-58 -114t-20.5 -147.5v-592h-182v1098h148l22 -201h8q25 43 53.5 83t64 70.5t79.5 49t100 18.5zM778 1542q-25 -29 -59.5 -67t-68 -78.5t-63 -80.5t-45.5 -75 h-192q-16 35 -45.5 75t-63 80.5t-67.5 78.5t-60 67v27h121q51 -34 104 -82.5t107 -104.5q52 56 106 104.5t105 82.5h121v-27z" />
<glyph unicode="&#x15a;" horiz-adv-x="1063" d="M104 0zM969 391q0 -97 -34.5 -173.5t-98.5 -129.5t-156 -80.5t-207 -27.5q-111 0 -207.5 17.5t-161.5 51.5v178q34 -16 77.5 -31.5t91.5 -27.5t99 -19.5t101 -7.5q160 0 236.5 60t76.5 172q0 54 -14.5 94t-51 73.5t-97.5 65t-154 68.5q-89 35 -154.5 76.5t-108 93.5 t-63 118t-20.5 150q0 88 32 157t90 116.5t138.5 72.5t177.5 25q119 0 214 -22.5t169 -57.5l-67 -156q-65 29 -147.5 50.5t-170.5 21.5q-122 0 -189 -56.5t-67 -152.5q0 -57 15 -98.5t50 -75t92.5 -63t141.5 -62.5q91 -36 159.5 -74t114.5 -86t69.5 -111t23.5 -149zM452 1606 q22 29 45.5 67t47 78.5t44.5 81t37 74.5h219v-21q-16 -27 -47.5 -67.5t-70 -84.5t-79 -85.5t-75.5 -69.5h-121v27z" />
<glyph unicode="&#x15b;" horiz-adv-x="924" d="M90 0zM831 301q0 -80 -29 -140t-83.5 -100.5t-131.5 -60.5t-173 -20q-109 0 -187 17.5t-137 51.5v166q31 -16 69 -31.5t80 -27.5t86.5 -19.5t88.5 -7.5q65 0 110.5 11t74 31.5t41.5 50t13 65.5q0 31 -10 56t-36.5 49.5t-72.5 49.5t-118 56t-129.5 61t-97.5 67t-61.5 85.5 t-21.5 115.5q0 70 27.5 124.5t77.5 91.5t120 56t156 19q97 0 177.5 -21t152.5 -55l-63 -147q-65 29 -133.5 50.5t-139.5 21.5q-102 0 -151 -33.5t-49 -95.5q0 -35 11.5 -61t39.5 -49t75 -46.5t117 -52.5q72 -30 128.5 -60t96.5 -67.5t61 -85.5t21 -115zM357 1268 q22 29 45.5 67t47 78.5t44.5 81t37 74.5h219v-21q-16 -27 -47.5 -67.5t-70 -84.5t-79 -85.5t-75.5 -69.5h-121v27z" />
<glyph unicode="&#x15c;" horiz-adv-x="1063" d="M104 0zM969 391q0 -97 -34.5 -173.5t-98.5 -129.5t-156 -80.5t-207 -27.5q-111 0 -207.5 17.5t-161.5 51.5v178q34 -16 77.5 -31.5t91.5 -27.5t99 -19.5t101 -7.5q160 0 236.5 60t76.5 172q0 54 -14.5 94t-51 73.5t-97.5 65t-154 68.5q-89 35 -154.5 76.5t-108 93.5 t-63 118t-20.5 150q0 88 32 157t90 116.5t138.5 72.5t177.5 25q119 0 214 -22.5t169 -57.5l-67 -156q-65 29 -147.5 50.5t-170.5 21.5q-122 0 -189 -56.5t-67 -152.5q0 -57 15 -98.5t50 -75t92.5 -63t141.5 -62.5q91 -36 159.5 -74t114.5 -86t69.5 -111t23.5 -149zM903 1579 h-121q-51 34 -105 82.5t-106 103.5q-54 -55 -107 -103.5t-104 -82.5h-121v27q26 29 60 67t67.5 78.5t63 81t45.5 74.5h192q16 -34 45.5 -74.5t63 -81t68 -78.5t59.5 -67v-27z" />
<glyph unicode="&#x15d;" horiz-adv-x="924" d="M90 0zM831 301q0 -80 -29 -140t-83.5 -100.5t-131.5 -60.5t-173 -20q-109 0 -187 17.5t-137 51.5v166q31 -16 69 -31.5t80 -27.5t86.5 -19.5t88.5 -7.5q65 0 110.5 11t74 31.5t41.5 50t13 65.5q0 31 -10 56t-36.5 49.5t-72.5 49.5t-118 56t-129.5 61t-97.5 67t-61.5 85.5 t-21.5 115.5q0 70 27.5 124.5t77.5 91.5t120 56t156 19q97 0 177.5 -21t152.5 -55l-63 -147q-65 29 -133.5 50.5t-139.5 21.5q-102 0 -151 -33.5t-49 -95.5q0 -35 11.5 -61t39.5 -49t75 -46.5t117 -52.5q72 -30 128.5 -60t96.5 -67.5t61 -85.5t21 -115zM821 1241h-121 q-51 34 -105 82.5t-106 103.5q-54 -55 -107 -103.5t-104 -82.5h-121v27q26 29 60 67t67.5 78.5t63 81t45.5 74.5h192q16 -34 45.5 -74.5t63 -81t68 -78.5t59.5 -67v-27z" />
<glyph unicode="&#x15e;" horiz-adv-x="1063" d="M104 0zM969 391q0 -97 -34.5 -173.5t-98.5 -129.5t-156 -80.5t-207 -27.5q-111 0 -207.5 17.5t-161.5 51.5v178q34 -16 77.5 -31.5t91.5 -27.5t99 -19.5t101 -7.5q160 0 236.5 60t76.5 172q0 54 -14.5 94t-51 73.5t-97.5 65t-154 68.5q-89 35 -154.5 76.5t-108 93.5 t-63 118t-20.5 150q0 88 32 157t90 116.5t138.5 72.5t177.5 25q119 0 214 -22.5t169 -57.5l-67 -156q-65 29 -147.5 50.5t-170.5 21.5q-122 0 -189 -56.5t-67 -152.5q0 -57 15 -98.5t50 -75t92.5 -63t141.5 -62.5q91 -36 159.5 -74t114.5 -86t69.5 -111t23.5 -149zM717 -287 q0 -97 -70.5 -151t-220.5 -54q-22 0 -44.5 3t-37.5 6v108q15 -3 39.5 -4.5t40.5 -1.5q71 0 111 21.5t40 70.5q0 24 -13 41.5t-36 30.5t-54.5 22.5t-68.5 18.5l90 176h121l-57 -115q34 -8 63 -21t50.5 -33.5t34 -49.5t12.5 -68z" />
<glyph unicode="&#x15f;" horiz-adv-x="924" d="M90 0zM831 301q0 -80 -29 -140t-83.5 -100.5t-131.5 -60.5t-173 -20q-109 0 -187 17.5t-137 51.5v166q31 -16 69 -31.5t80 -27.5t86.5 -19.5t88.5 -7.5q65 0 110.5 11t74 31.5t41.5 50t13 65.5q0 31 -10 56t-36.5 49.5t-72.5 49.5t-118 56t-129.5 61t-97.5 67t-61.5 85.5 t-21.5 115.5q0 70 27.5 124.5t77.5 91.5t120 56t156 19q97 0 177.5 -21t152.5 -55l-63 -147q-65 29 -133.5 50.5t-139.5 21.5q-102 0 -151 -33.5t-49 -95.5q0 -35 11.5 -61t39.5 -49t75 -46.5t117 -52.5q72 -30 128.5 -60t96.5 -67.5t61 -85.5t21 -115zM648 -287 q0 -97 -70.5 -151t-220.5 -54q-22 0 -44.5 3t-37.5 6v108q15 -3 39.5 -4.5t40.5 -1.5q71 0 111 21.5t40 70.5q0 24 -13 41.5t-36 30.5t-54.5 22.5t-68.5 18.5l90 176h121l-57 -115q34 -8 63 -21t50.5 -33.5t34 -49.5t12.5 -68z" />
<glyph unicode="&#x160;" horiz-adv-x="1063" d="M104 0zM969 391q0 -97 -34.5 -173.5t-98.5 -129.5t-156 -80.5t-207 -27.5q-111 0 -207.5 17.5t-161.5 51.5v178q34 -16 77.5 -31.5t91.5 -27.5t99 -19.5t101 -7.5q160 0 236.5 60t76.5 172q0 54 -14.5 94t-51 73.5t-97.5 65t-154 68.5q-89 35 -154.5 76.5t-108 93.5 t-63 118t-20.5 150q0 88 32 157t90 116.5t138.5 72.5t177.5 25q119 0 214 -22.5t169 -57.5l-67 -156q-65 29 -147.5 50.5t-170.5 21.5q-122 0 -189 -56.5t-67 -152.5q0 -57 15 -98.5t50 -75t92.5 -63t141.5 -62.5q91 -36 159.5 -74t114.5 -86t69.5 -111t23.5 -149zM896 1880 q-25 -29 -59.5 -67t-68 -78.5t-63 -80.5t-45.5 -75h-192q-16 35 -45.5 75t-63 80.5t-67.5 78.5t-60 67v27h121q51 -34 104 -82.5t107 -104.5q52 56 106 104.5t105 82.5h121v-27z" />
<glyph unicode="&#x161;" horiz-adv-x="924" d="M90 0zM831 301q0 -80 -29 -140t-83.5 -100.5t-131.5 -60.5t-173 -20q-109 0 -187 17.5t-137 51.5v166q31 -16 69 -31.5t80 -27.5t86.5 -19.5t88.5 -7.5q65 0 110.5 11t74 31.5t41.5 50t13 65.5q0 31 -10 56t-36.5 49.5t-72.5 49.5t-118 56t-129.5 61t-97.5 67t-61.5 85.5 t-21.5 115.5q0 70 27.5 124.5t77.5 91.5t120 56t156 19q97 0 177.5 -21t152.5 -55l-63 -147q-65 29 -133.5 50.5t-139.5 21.5q-102 0 -151 -33.5t-49 -95.5q0 -35 11.5 -61t39.5 -49t75 -46.5t117 -52.5q72 -30 128.5 -60t96.5 -67.5t61 -85.5t21 -115zM817 1542 q-25 -29 -59.5 -67t-68 -78.5t-63 -80.5t-45.5 -75h-192q-16 35 -45.5 75t-63 80.5t-67.5 78.5t-60 67v27h121q51 -34 104 -82.5t107 -104.5q52 56 106 104.5t105 82.5h121v-27z" />
<glyph unicode="&#x162;" horiz-adv-x="1063" d="M20 0zM625 0h-187v1298h-418v164h1022v-164h-417v-1298zM360 -426q11 25 24 63t25 80t21.5 83.5t13.5 74.5h178v-20q-6 -25 -21.5 -63.5t-37.5 -82t-49 -86.5t-56 -76h-98v27z" />
<glyph unicode="&#x163;" horiz-adv-x="694" d="M33 0zM506 129q18 0 40.5 2t43.5 5t38.5 7t26.5 7v-138q-13 -6 -33 -12t-44 -10.5t-50 -7t-51 -2.5q-62 0 -115 16t-91.5 55t-60.5 105.5t-22 167.5v637h-155v81l155 78l78 230h105v-252h276v-137h-276v-637q0 -97 31.5 -146t103.5 -49zM204 -426q11 25 24 63t25 80 t21.5 83.5t13.5 74.5h178v-20q-6 -25 -21.5 -63.5t-37.5 -82t-49 -86.5t-56 -76h-98v27z" />
<glyph unicode="&#x164;" horiz-adv-x="1063" d="M20 0zM625 0h-187v1298h-418v164h1022v-164h-417v-1298zM866 1880q-25 -29 -59.5 -67t-68 -78.5t-63 -80.5t-45.5 -75h-192q-16 35 -45.5 75t-63 80.5t-67.5 78.5t-60 67v27h121q51 -34 104 -82.5t107 -104.5q52 56 106 104.5t105 82.5h121v-27z" />
<glyph unicode="&#x165;" horiz-adv-x="694" d="M33 0zM506 129q18 0 40.5 2t43.5 5t38.5 7t26.5 7v-138q-13 -6 -33 -12t-44 -10.5t-50 -7t-51 -2.5q-62 0 -115 16t-91.5 55t-60.5 105.5t-22 167.5v637h-155v81l155 78l78 230h105v-252h276v-137h-276v-637q0 -97 31.5 -146t103.5 -49zM502 1255q9 30 18 68.5t17.5 79 t15.5 80.5t11 73h180v-20q-6 -25 -21.5 -64t-36 -82t-43.5 -86t-45 -75h-96v26z" />
<glyph unicode="&#x166;" horiz-adv-x="1063" d="M438 819v479h-418v164h1022v-164h-417v-479h295v-149h-295v-670h-187v670h-297v149h297z" />
<glyph unicode="&#x167;" horiz-adv-x="694" d="M506 129q18 0 40.5 2t43.5 5t38.5 7t26.5 7v-138q-13 -6 -33 -12t-44 -10.5t-50 -7t-51 -2.5q-62 0 -115 16t-91.5 55t-60.5 105.5t-22 167.5v251h-139v138h139v248h-155v81l155 78l78 230h105v-252h276v-137h-276v-248h258v-138h-258v-251q0 -97 31.5 -146t103.5 -49z " />
<glyph unicode="&#x168;" horiz-adv-x="1430" d="M184 0zM1245 1464v-948q0 -114 -33 -212t-99.5 -170t-167 -113t-236.5 -41q-128 0 -226 38.5t-164.5 109.5t-100.5 170.5t-34 221.5v942h187v-952q0 -175 86.5 -271t261.5 -96q89 0 153 27t105 76t61 117t21 149v952h186zM862 1581q-40 0 -79.5 17.5t-77.5 39t-73 39 t-67 17.5q-45 0 -69 -26.5t-38 -88.5h-104q5 60 21.5 109t43 83.5t63.5 53t83 18.5q42 0 82.5 -17.5t78.5 -38.5t72.5 -38.5t63.5 -17.5q45 0 68 26t38 88h105q-5 -60 -21.5 -108.5t-43 -83t-63.5 -53.5t-83 -19z" />
<glyph unicode="&#x169;" horiz-adv-x="1206" d="M164 0zM885 0l-27 147h-10q-25 -43 -59.5 -74.5t-75.5 -52t-87 -30.5t-94 -10q-91 0 -160 23t-115 72t-69.5 125t-23.5 181v717h182v-707q0 -130 53 -195t164 -65q81 0 136 26t88.5 76.5t48 124.5t14.5 170v570h182v-1098h-147zM753 1243q-40 0 -79.5 17.5t-77.5 39 t-73 39t-67 17.5q-45 0 -69 -26.5t-38 -88.5h-104q5 60 21.5 109t43 83.5t63.5 53t83 18.5q42 0 82.5 -17.5t78.5 -38.5t72.5 -38.5t63.5 -17.5q45 0 68 26t38 88h105q-5 -60 -21.5 -108.5t-43 -83t-63.5 -53.5t-83 -19z" />
<glyph unicode="&#x16a;" horiz-adv-x="1430" d="M184 0zM1245 1464v-948q0 -114 -33 -212t-99.5 -170t-167 -113t-236.5 -41q-128 0 -226 38.5t-164.5 109.5t-100.5 170.5t-34 221.5v942h187v-952q0 -175 86.5 -271t261.5 -96q89 0 153 27t105 76t61 117t21 149v952h186zM426 1729h575v-150h-575v150z" />
<glyph unicode="&#x16b;" horiz-adv-x="1206" d="M164 0zM885 0l-27 147h-10q-25 -43 -59.5 -74.5t-75.5 -52t-87 -30.5t-94 -10q-91 0 -160 23t-115 72t-69.5 125t-23.5 181v717h182v-707q0 -130 53 -195t164 -65q81 0 136 26t88.5 76.5t48 124.5t14.5 170v570h182v-1098h-147zM316 1391h575v-150h-575v150z" />
<glyph unicode="&#x16c;" horiz-adv-x="1430" d="M184 0zM1245 1464v-948q0 -114 -33 -212t-99.5 -170t-167 -113t-236.5 -41q-128 0 -226 38.5t-164.5 109.5t-100.5 170.5t-34 221.5v942h187v-952q0 -175 86.5 -271t261.5 -96q89 0 153 27t105 76t61 117t21 149v952h186zM1016 1856q-4 -61 -26 -111.5t-60.5 -87.5 t-93 -57.5t-125.5 -20.5q-73 0 -127.5 19.5t-91 56t-56 87.5t-22.5 114h108q4 -43 18 -68t38 -37.5t57.5 -16t77.5 -3.5q36 0 68.5 4.5t58 18t42.5 38t21 64.5h113z" />
<glyph unicode="&#x16d;" horiz-adv-x="1206" d="M164 0zM885 0l-27 147h-10q-25 -43 -59.5 -74.5t-75.5 -52t-87 -30.5t-94 -10q-91 0 -160 23t-115 72t-69.5 125t-23.5 181v717h182v-707q0 -130 53 -195t164 -65q81 0 136 26t88.5 76.5t48 124.5t14.5 170v570h182v-1098h-147zM903 1518q-4 -61 -26 -111.5t-60.5 -87.5 t-93 -57.5t-125.5 -20.5q-73 0 -127.5 19.5t-91 56t-56 87.5t-22.5 114h108q4 -43 18 -68t38 -37.5t57.5 -16t77.5 -3.5q36 0 68.5 4.5t58 18t42.5 38t21 64.5h113z" />
<glyph unicode="&#x16e;" horiz-adv-x="1430" d="M184 0zM1245 1464v-948q0 -114 -33 -212t-99.5 -170t-167 -113t-236.5 -41q-128 0 -226 38.5t-164.5 109.5t-100.5 170.5t-34 221.5v942h187v-952q0 -175 86.5 -271t261.5 -96q89 0 153 27t105 76t61 117t21 149v952h186zM940 1796q0 -51 -17.5 -91.5t-48 -68.5 t-72.5 -42.5t-91 -14.5q-50 0 -91 14.5t-70.5 42.5t-45.5 67.5t-16 90.5t16 90.5t45.5 67.5t70.5 42.5t91 14.5q48 0 90 -14.5t73 -42t48.5 -67t17.5 -89.5zM823 1794q0 53 -31.5 83t-80.5 30q-50 0 -81.5 -30t-31.5 -83t28.5 -83t84.5 -30q49 0 80.5 30t31.5 83z" />
<glyph unicode="&#x16f;" horiz-adv-x="1206" d="M164 0zM885 0l-27 147h-10q-25 -43 -59.5 -74.5t-75.5 -52t-87 -30.5t-94 -10q-91 0 -160 23t-115 72t-69.5 125t-23.5 181v717h182v-707q0 -130 53 -195t164 -65q81 0 136 26t88.5 76.5t48 124.5t14.5 170v570h182v-1098h-147zM829 1458q0 -51 -17.5 -91.5t-48 -68.5 t-72.5 -42.5t-91 -14.5q-50 0 -91 14.5t-70.5 42.5t-45.5 67.5t-16 90.5t16 90.5t45.5 67.5t70.5 42.5t91 14.5q48 0 90 -14.5t73 -42t48.5 -67t17.5 -89.5zM712 1456q0 53 -31.5 83t-80.5 30q-50 0 -81.5 -30t-31.5 -83t28.5 -83t84.5 -30q49 0 80.5 30t31.5 83z" />
<glyph unicode="&#x170;" horiz-adv-x="1430" d="M184 0zM1245 1464v-948q0 -114 -33 -212t-99.5 -170t-167 -113t-236.5 -41q-128 0 -226 38.5t-164.5 109.5t-100.5 170.5t-34 221.5v942h187v-952q0 -175 86.5 -271t261.5 -96q89 0 153 27t105 76t61 117t21 149v952h186zM401 1606q22 29 45.5 67t47 78.5t44.5 81 t37 74.5h199v-21q-16 -27 -47.5 -67.5t-70 -84.5t-79 -85.5t-75.5 -69.5h-101v27zM764 1606q21 29 45 67t47.5 78.5t44.5 81t37 74.5h198v-21q-16 -27 -47.5 -67.5t-70 -84.5t-79 -85.5t-75.5 -69.5h-100v27z" />
<glyph unicode="&#x171;" horiz-adv-x="1206" d="M164 0zM885 0l-27 147h-10q-25 -43 -59.5 -74.5t-75.5 -52t-87 -30.5t-94 -10q-91 0 -160 23t-115 72t-69.5 125t-23.5 181v717h182v-707q0 -130 53 -195t164 -65q81 0 136 26t88.5 76.5t48 124.5t14.5 170v570h182v-1098h-147zM303 1268q22 29 45.5 67t47 78.5t44.5 81 t37 74.5h199v-21q-16 -27 -47.5 -67.5t-70 -84.5t-79 -85.5t-75.5 -69.5h-101v27zM666 1268q21 29 45 67t47.5 78.5t44.5 81t37 74.5h198v-21q-16 -27 -47.5 -67.5t-70 -84.5t-79 -85.5t-75.5 -69.5h-100v27z" />
<glyph unicode="&#x172;" horiz-adv-x="1430" d="M184 0zM1245 1464v-948q0 -114 -33 -212t-99.5 -170t-167 -113t-236.5 -41q-128 0 -226 38.5t-164.5 109.5t-100.5 170.5t-34 221.5v942h187v-952q0 -175 86.5 -271t261.5 -96q89 0 153 27t105 76t61 117t21 149v952h186zM717 -238q0 -45 26 -66.5t60 -21.5 q25 0 47.5 2.5t36.5 6.5v-113q-26 -8 -58 -12t-61 -4q-100 0 -150 52t-50 142q0 42 15 79.5t38.5 69.5t51.5 58t54 45h129q-139 -133 -139 -238z" />
<glyph unicode="&#x173;" horiz-adv-x="1206" d="M164 0zM885 0l-27 147h-10q-25 -43 -59.5 -74.5t-75.5 -52t-87 -30.5t-94 -10q-91 0 -160 23t-115 72t-69.5 125t-23.5 181v717h182v-707q0 -130 53 -195t164 -65q81 0 136 26t88.5 76.5t48 124.5t14.5 170v570h182v-1098h-147zM876 -238q0 -45 26 -66.5t60 -21.5 q25 0 47.5 2.5t36.5 6.5v-113q-26 -8 -58 -12t-61 -4q-100 0 -150 52t-50 142q0 42 15 79.5t38.5 69.5t51.5 58t54 45h129q-139 -133 -139 -238z" />
<glyph unicode="&#x174;" horiz-adv-x="1810" d="M20 0zM809 1462h197l229 -856q15 -56 29.5 -112t27 -108.5t22 -99.5t15.5 -85q4 38 10 83t14 94.5t17.5 101t20.5 100.5l200 882h199l-367 -1462h-188l-254 938q-14 51 -27 105t-24 101q-12 55 -23 107q-11 -51 -22 -106q-10 -47 -22.5 -103t-26.5 -110l-242 -932h-188 l-386 1462h197l223 -889q12 -46 22 -95.5t18.5 -98.5t15.5 -94.5t12 -83.5q5 37 12.5 86t17.5 103t21.5 109.5t24.5 104.5zM1237 1579h-121q-51 34 -105 82.5t-106 103.5q-54 -55 -107 -103.5t-104 -82.5h-121v27q26 29 60 67t67.5 78.5t63 81t45.5 74.5h192 q16 -34 45.5 -74.5t63 -81t68 -78.5t59.5 -67v-27z" />
<glyph unicode="&#x175;" horiz-adv-x="1528" d="M20 0zM1008 0l-168 616q-4 18 -10 40.5t-12 47.5t-12.5 51t-12.5 51q-14 58 -29 120h-6q-14 -63 -27 -121q-11 -50 -23.5 -103t-23.5 -90l-172 -612h-211l-281 1098h191l131 -584q10 -45 20 -97.5t19 -104t16 -97t11 -74.5h6q5 26 13.5 69.5t19 92t21.5 96t21 80.5 l179 619h196l172 -619q9 -34 20.5 -80t22.5 -93.5t20 -91.5t13 -73h6q3 26 9.5 69.5t15.5 95.5t19.5 106.5t21.5 101.5l137 584h186l-284 -1098h-215zM1096 1241h-121q-51 34 -105 82.5t-106 103.5q-54 -55 -107 -103.5t-104 -82.5h-121v27q26 29 60 67t67.5 78.5t63 81 t45.5 74.5h192q16 -34 45.5 -74.5t63 -81t68 -78.5t59.5 -67v-27z" />
<glyph unicode="&#x176;" horiz-adv-x="1079" d="M0 0zM539 723l340 739h200l-446 -893v-569h-187v559l-446 903h203zM874 1579h-121q-51 34 -105 82.5t-106 103.5q-54 -55 -107 -103.5t-104 -82.5h-121v27q26 29 60 67t67.5 78.5t63 81t45.5 74.5h192q16 -34 45.5 -74.5t63 -81t68 -78.5t59.5 -67v-27z" />
<glyph unicode="&#x177;" horiz-adv-x="1001" d="M10 0zM10 1098h189l215 -613q14 -40 28.5 -84t27 -88t21.5 -85t13 -76h6q5 25 16 68t24.5 91.5t28 95.5t25.5 80l199 611h188l-434 -1241q-28 -81 -60.5 -145.5t-75.5 -109.5t-101 -69.5t-138 -24.5q-52 0 -90 5.5t-65 11.5v145q21 -5 53 -8.5t67 -3.5q48 0 83 11.5 t61 33.5t44.5 54t33.5 73l57 160zM835 1241h-121q-51 34 -105 82.5t-106 103.5q-54 -55 -107 -103.5t-104 -82.5h-121v27q26 29 60 67t67.5 78.5t63 81t45.5 74.5h192q16 -34 45.5 -74.5t63 -81t68 -78.5t59.5 -67v-27z" />
<glyph unicode="&#x178;" horiz-adv-x="1079" d="M0 0zM539 723l340 739h200l-446 -893v-569h-187v559l-446 903h203zM257 1733q0 54 28 78t68 24q39 0 68 -24.5t29 -77.5t-29 -78t-68 -25q-40 0 -68 25t-28 78zM632 1733q0 54 28 78t68 24q19 0 36.5 -6t30.5 -18.5t21 -31.5t8 -46q0 -53 -29 -78t-67 -25q-40 0 -68 25 t-28 78z" />
<glyph unicode="&#x179;" horiz-adv-x="1104" d="M82 0zM1022 0h-940v145l711 1151h-691v166h899v-145l-710 -1151h731v-166zM450 1606q22 29 45.5 67t47 78.5t44.5 81t37 74.5h219v-21q-16 -27 -47.5 -67.5t-70 -84.5t-79 -85.5t-75.5 -69.5h-121v27z" />
<glyph unicode="&#x17a;" horiz-adv-x="903" d="M82 0zM821 0h-739v125l536 836h-503v137h688v-146l-524 -815h542v-137zM351 1268q22 29 45.5 67t47 78.5t44.5 81t37 74.5h219v-21q-16 -27 -47.5 -67.5t-70 -84.5t-79 -85.5t-75.5 -69.5h-121v27z" />
<glyph unicode="&#x17b;" horiz-adv-x="1104" d="M82 0zM1022 0h-940v145l711 1151h-691v166h899v-145l-710 -1151h731v-166zM457 1733q0 60 30.5 87t75.5 27q22 0 41.5 -6.5t34 -20.5t23 -35.5t8.5 -51.5q0 -58 -31.5 -86.5t-75.5 -28.5q-45 0 -75.5 28t-30.5 87z" />
<glyph unicode="&#x17c;" horiz-adv-x="903" d="M82 0zM821 0h-739v125l536 836h-503v137h688v-146l-524 -815h542v-137zM365 1395q0 60 30.5 87t75.5 27q22 0 41.5 -6.5t34 -20.5t23 -35.5t8.5 -51.5q0 -58 -31.5 -86.5t-75.5 -28.5q-45 0 -75.5 28t-30.5 87z" />
<glyph unicode="&#x17d;" horiz-adv-x="1104" d="M82 0zM1022 0h-940v145l711 1151h-691v166h899v-145l-710 -1151h731v-166zM890 1880q-25 -29 -59.5 -67t-68 -78.5t-63 -80.5t-45.5 -75h-192q-16 35 -45.5 75t-63 80.5t-67.5 78.5t-60 67v27h121q51 -34 104 -82.5t107 -104.5q52 56 106 104.5t105 82.5h121v-27z" />
<glyph unicode="&#x17e;" horiz-adv-x="903" d="M82 0zM821 0h-739v125l536 836h-503v137h688v-146l-524 -815h542v-137zM800 1542q-25 -29 -59.5 -67t-68 -78.5t-63 -80.5t-45.5 -75h-192q-16 35 -45.5 75t-63 80.5t-67.5 78.5t-60 67v27h121q51 -34 104 -82.5t107 -104.5q52 56 106 104.5t105 82.5h121v-27z" />
<glyph unicode="&#x17f;" horiz-adv-x="588" d="M174 0v1200q0 107 22.5 177.5t65 112.5t104.5 59.5t140 17.5q59 0 108.5 -11.5t87.5 -25.5l-47 -141q-31 11 -67 19.5t-76 8.5t-69 -9.5t-48.5 -33.5t-29 -65.5t-9.5 -106.5v-1202h-182z" />
<glyph unicode="&#x192;" horiz-adv-x="1128" d="M655 836v-961q0 -107 -22.5 -177.5t-65 -112.5t-104 -59.5t-139.5 -17.5q-32 0 -62.5 4.5t-58.5 10.5v153q26 -8 54.5 -13t59.5 -5q40 0 69.5 9.5t48.5 33.5t28.5 65.5t9.5 106.5v963h-194v75l194 68v137q0 107 22.5 177.5t65 112.5t104.5 59.5t140 17.5 q59 0 108.5 -11.5t87.5 -25.5l-47 -141q-31 11 -67 19.5t-76 8.5t-69 -9.5t-48.5 -33.5t-29 -65.5t-9.5 -106.5v-145h246v-137h-246z" />
<glyph unicode="&#x1a0;" horiz-adv-x="1520" d="M1559 1556l14 -22q-12 -60 -32 -116t-51.5 -104.5t-76.5 -86.5t-108 -62q43 -89 65.5 -197t22.5 -235q0 -170 -40.5 -308.5t-120.5 -237.5t-198.5 -153t-273.5 -54q-163 0 -282.5 54t-198 153t-116.5 238.5t-38 309.5t38 308.5t117 236.5t198.5 151.5t283.5 53.5 q158 0 276 -55.5t199 -157.5q41 12 65.5 38.5t37 63.5t16.5 83.5t4 98.5h199zM322 733q0 -137 26 -246.5t79.5 -186t136 -117t196.5 -40.5t196.5 40.5t136 117t78.5 186t25 246.5q0 138 -25 247t-78 184.5t-135 116t-196 40.5t-197 -40.5t-137 -116t-80 -184.5t-26 -247z " />
<glyph unicode="&#x1a1;" horiz-adv-x="1194" d="M1069 551q0 -137 -33.5 -243.5t-96 -179t-151.5 -110.5t-200 -38q-103 0 -190 38t-150.5 110.5t-99 179t-35.5 243.5q0 136 33.5 241.5t95.5 178t151.5 110t200.5 37.5q100 0 184.5 -35.5t147.5 -103.5q46 13 72 40.5t38.5 65t15.5 84t3 97.5h198l15 -23 q-16 -74 -38.5 -134t-54 -107t-74.5 -80.5t-100 -53.5q32 -65 50 -144t18 -173zM301 551q0 -209 68.5 -314.5t222.5 -105.5t221.5 105.5t67.5 314.5q0 208 -68.5 312t-222.5 104t-221.5 -104t-67.5 -312z" />
<glyph unicode="&#x1af;" horiz-adv-x="1524" d="M1245 1462v-196q52 6 83 31t47 64t21 89t5 106h198l15 -22q-15 -71 -40 -136t-67.5 -117.5t-106.5 -89.5t-155 -52v-623q0 -114 -33 -212t-99.5 -170t-167 -113t-236.5 -41q-128 0 -226 38.5t-164.5 109.5t-100.5 170.5t-34 221.5v942h187v-952q0 -176 86 -271.5 t262 -95.5q89 0 153 27t105 76t61 117t21 149v950h186z" />
<glyph unicode="&#x1b0;" horiz-adv-x="1327" d="M885 0l-27 147h-10q-25 -43 -59.5 -74.5t-75.5 -52t-87 -30.5t-94 -10q-91 0 -160 23t-115 72t-69.5 125t-23.5 181v717h182v-707q0 -130 53 -195t164 -65q81 0 136 26t88.5 76.5t48 124.5t14.5 170v570h182v-123q52 6 83 31t47 64t21 89.5t5 106.5h198l15 -23 q-15 -71 -40 -139t-67.5 -122.5t-106.5 -90.5t-155 -43v-848h-147z" />
<glyph unicode="&#x1f0;" horiz-adv-x="530" d="M66 -492q-48 0 -79.5 7t-54.5 18v148q26 -10 53 -15.5t62 -5.5q27 0 50 7.5t40.5 27t27 52t9.5 83.5v1268h182v-1256q0 -77 -17 -138.5t-53 -105t-90.5 -67t-129.5 -23.5zM597 1542q-25 -29 -59.5 -67t-68 -78.5t-63 -80.5t-45.5 -75h-192q-16 35 -45.5 75t-63 80.5 t-67.5 78.5t-60 67v27h121q51 -34 104 -82.5t107 -104.5q52 56 106 104.5t105 82.5h121v-27z" />
<glyph unicode="&#x1fa;" horiz-adv-x="1245" d="M848 1436q0 -70 -30 -118t-81 -73l508 -1245h-190l-154 391h-557l-156 -391h-188l504 1243q-51 25 -80 73t-29 118q0 51 16 90.5t45.5 67.5t70.5 42.5t91 14.5q49 0 91 -14.5t73 -42t48.5 -67t17.5 -89.5zM836 557l-148 381q-6 16 -14.5 39t-17.5 50t-18 56.5t-17 57.5 q-7 -28 -16 -58t-18 -57t-17.5 -50t-14.5 -38l-145 -381h426zM543 1720q21 24 45 54.5t47.5 63t44.5 64.5t37 60h219v-16q-16 -22 -47.5 -54.5t-70 -68t-79 -68.5t-75.5 -55h-121v20zM731 1434q0 52 -31.5 82t-81.5 30q-49 0 -80.5 -30t-31.5 -82q0 -51 25.5 -80.5 t74.5 -32.5h12q50 0 81.5 30t31.5 83z" />
<glyph unicode="&#x1fb;" horiz-adv-x="1087" d="M455 1720q21 24 45 54.5t47.5 63t44.5 64.5t37 60h219v-16q-16 -22 -47.5 -54.5t-70 -68t-79.5 -68.5t-76 -55h-120v20zM793 0l-37 152h-8q-33 -45 -66 -77.5t-72 -53.5t-87 -31t-111 -10q-69 0 -127 19.5t-100.5 60t-66.5 102t-24 145.5q0 164 115.5 252t351.5 96l184 7 v69q0 67 -14.5 112t-42 72.5t-68 39.5t-92.5 12q-83 0 -154.5 -24t-137.5 -58l-64 137q74 40 165 68t191 28q102 0 176.5 -20.5t123 -65t72.5 -113.5t24 -167v-752h-131zM459 127q61 0 113 19t90 57.5t59.5 97t21.5 137.5v99l-143 -7q-90 -4 -151 -20t-97.5 -44.5t-52.5 -69 t-16 -91.5q0 -92 48.5 -135t127.5 -43zM770 1415q0 -51 -17.5 -91.5t-48 -68.5t-72.5 -42.5t-91 -14.5q-50 0 -91 14.5t-70.5 42.5t-46 67.5t-16.5 90.5t16.5 90.5t46 67.5t70.5 42.5t91 14.5q48 0 90 -14.5t73 -42t48.5 -67t17.5 -89.5zM653 1413q0 53 -31.5 83t-80.5 30 q-50 0 -81.5 -30t-31.5 -83t28.5 -83t84.5 -30q49 0 80.5 30t31.5 83z" />
<glyph unicode="&#x1fc;" horiz-adv-x="1745" d="M0 0zM1622 0h-760v453h-475l-203 -453h-186l655 1462h969v-164h-573v-452h534v-162h-534v-520h573v-164zM459 618h403v680h-108zM942 1606q22 29 45.5 67t47 78.5t44.5 81t37 74.5h219v-21q-16 -27 -47.5 -67.5t-70 -84.5t-79 -85.5t-75.5 -69.5h-121v27z" />
<glyph unicode="&#x1fd;" horiz-adv-x="1706" d="M94 0zM94 307q0 164 115.5 252t351.5 96l184 7v69q0 67 -14.5 112t-42 72.5t-68 39.5t-92.5 12q-83 0 -154.5 -24t-137.5 -58l-64 137q74 40 165 68t191 28q131 0 214 -42.5t126 -135.5q51 85 134 131.5t186 46.5q97 0 174 -35.5t131 -100t82.5 -155t28.5 -200.5v-113 h-672q5 -193 78.5 -284t220.5 -91q49 0 91.5 5t81.5 14.5t76 24t74 32.5v-162q-39 -19 -76.5 -33t-77 -23t-82 -13t-91.5 -4q-138 0 -239 57t-163 172q-34 -54 -72 -96.5t-85.5 -72t-105.5 -45t-132 -15.5q-71 0 -132.5 19.5t-106.5 60t-71 102t-26 145.5zM283 305 q0 -92 48.5 -135t127.5 -43q61 0 113 19t90 57.5t59.5 97t21.5 137.5v99l-143 -7q-90 -4 -151 -20t-97.5 -44.5t-52.5 -69t-16 -91.5zM1184 967q-110 0 -173.5 -78t-74.5 -227h471q0 68 -13 124.5t-40.5 96.5t-69.5 62t-100 22zM766 1268q22 29 45.5 67t47 78.5t44.5 81 t37 74.5h219v-21q-16 -27 -47.5 -67.5t-70 -84.5t-79 -85.5t-75.5 -69.5h-121v27z" />
<glyph unicode="&#x1fe;" horiz-adv-x="1520" d="M125 0zM1300 1454l-92 -149q91 -99 138 -244t47 -328q0 -169 -40.5 -308t-120.5 -238t-198.5 -153t-273.5 -54q-189 0 -322 71l-78 -127l-137 78l90 145q-97 100 -142.5 249t-45.5 339q0 170 38 308.5t117 236.5t199 151.5t283 53.5q94 0 174.5 -21t146.5 -59l80 127z M322 733q0 -131 23 -235.5t71 -182.5l579 945q-48 29 -105 45t-128 16q-114 0 -197 -40.5t-137 -116t-80 -184.5t-26 -247zM1196 733q0 257 -88 408l-578 -940q47 -28 104 -43t126 -15q114 0 196.5 40.5t136 117t78.5 186t25 246.5zM651 1606q22 29 45.5 67t47 78.5t44.5 81 t37 74.5h219v-21q-16 -27 -47.5 -67.5t-70 -84.5t-79 -85.5t-75.5 -69.5h-121v27z" />
<glyph unicode="&#x1ff;" d="M115 0zM1071 551q0 -137 -33.5 -243.5t-96 -179t-151.5 -110.5t-200 -38q-125 0 -223 53l-68 -109l-131 74l80 131q-63 72 -98 178.5t-35 243.5q0 136 33.5 241.5t95.5 178t151.5 110t200.5 37.5q63 0 119.5 -14.5t105.5 -42.5l68 108l131 -73l-80 -129 q62 -73 96.5 -177.5t34.5 -238.5zM303 551q0 -84 9.5 -149.5t31.5 -116.5l397 647q-29 17 -66.5 26t-82.5 9q-154 0 -221.5 -103.5t-67.5 -312.5zM883 551q0 159 -39 258l-398 -645q31 -17 67 -25t81 -8q154 0 221.5 105.5t67.5 314.5zM473 1268q22 29 45.5 67t47 78.5 t44.5 81t37 74.5h219v-21q-16 -27 -47.5 -67.5t-70 -84.5t-79 -85.5t-75.5 -69.5h-121v27z" />
<glyph unicode="&#x218;" horiz-adv-x="1063" d="M104 0zM969 391q0 -97 -34.5 -173.5t-98.5 -129.5t-156 -80.5t-207 -27.5q-111 0 -207.5 17.5t-161.5 51.5v178q34 -16 77.5 -31.5t91.5 -27.5t99 -19.5t101 -7.5q160 0 236.5 60t76.5 172q0 54 -14.5 94t-51 73.5t-97.5 65t-154 68.5q-89 35 -154.5 76.5t-108 93.5 t-63 118t-20.5 150q0 88 32 157t90 116.5t138.5 72.5t177.5 25q119 0 214 -22.5t169 -57.5l-67 -156q-65 29 -147.5 50.5t-170.5 21.5q-122 0 -189 -56.5t-67 -152.5q0 -57 15 -98.5t50 -75t92.5 -63t141.5 -62.5q91 -36 159.5 -74t114.5 -86t69.5 -111t23.5 -149zM367 -426 q11 25 24 63t25 80t21.5 83.5t13.5 74.5h178v-20q-6 -25 -21.5 -63.5t-37.5 -82t-49 -86.5t-56 -76h-98v27z" />
<glyph unicode="&#x219;" horiz-adv-x="924" d="M90 0zM831 301q0 -80 -29 -140t-83.5 -100.5t-131.5 -60.5t-173 -20q-109 0 -187 17.5t-137 51.5v166q31 -16 69 -31.5t80 -27.5t86.5 -19.5t88.5 -7.5q65 0 110.5 11t74 31.5t41.5 50t13 65.5q0 31 -10 56t-36.5 49.5t-72.5 49.5t-118 56t-129.5 61t-97.5 67t-61.5 85.5 t-21.5 115.5q0 70 27.5 124.5t77.5 91.5t120 56t156 19q97 0 177.5 -21t152.5 -55l-63 -147q-65 29 -133.5 50.5t-139.5 21.5q-102 0 -151 -33.5t-49 -95.5q0 -35 11.5 -61t39.5 -49t75 -46.5t117 -52.5q72 -30 128.5 -60t96.5 -67.5t61 -85.5t21 -115zM298 -426 q11 25 24 63t25 80t21.5 83.5t13.5 74.5h178v-20q-6 -25 -21.5 -63.5t-37.5 -82t-49 -86.5t-56 -76h-98v27z" />
<glyph unicode="&#x237;" horiz-adv-x="530" d="M66 -492q-48 0 -79.5 7t-54.5 18v148q26 -10 53 -15.5t62 -5.5q27 0 50 7.5t40.5 27t27 52t9.5 83.5v1268h182v-1256q0 -77 -17 -138.5t-53 -105t-90.5 -67t-129.5 -23.5z" />
<glyph unicode="&#x2bc;" horiz-adv-x="358" d="M23 961zM322 1462l14 -22q-14 -55 -33.5 -115.5t-43 -123t-49 -123.5t-50.5 -117h-137q14 60 28.5 126t28 132t24.5 128t19 115h199z" />
<glyph unicode="&#x2c6;" d="M922 1241h-121q-51 34 -105 82.5t-106 103.5q-54 -55 -107 -103.5t-104 -82.5h-121v27q26 29 60 67t67.5 78.5t63 81t45.5 74.5h192q16 -34 45.5 -74.5t63 -81t68 -78.5t59.5 -67v-27z" />
<glyph unicode="&#x2c7;" d="M922 1542q-25 -29 -59.5 -67t-68 -78.5t-63 -80.5t-45.5 -75h-192q-16 35 -45.5 75t-63 80.5t-67.5 78.5t-60 67v27h121q51 -34 104 -82.5t107 -104.5q52 56 106 104.5t105 82.5h121v-27z" />
<glyph unicode="&#x2c9;" horiz-adv-x="1141" d="M283 1391h575v-150h-575v150z" />
<glyph unicode="&#x2d8;" d="M891 1518q-4 -61 -26 -111.5t-60.5 -87.5t-93 -57.5t-125.5 -20.5q-73 0 -127.5 19.5t-91 56t-56 87.5t-22.5 114h108q4 -43 18 -68t38 -37.5t57.5 -16t77.5 -3.5q36 0 68.5 4.5t58 18t42.5 38t21 64.5h113z" />
<glyph unicode="&#x2d9;" horiz-adv-x="530" d="M160 1395q0 60 30.5 87t75.5 27q22 0 41.5 -6.5t34 -20.5t23 -35.5t8.5 -51.5q0 -58 -31.5 -86.5t-75.5 -28.5q-45 0 -75.5 28t-30.5 87z" />
<glyph unicode="&#x2da;" d="M817 1458q0 -51 -17.5 -91.5t-48 -68.5t-72.5 -42.5t-91 -14.5q-50 0 -91 14.5t-70.5 42.5t-45.5 67.5t-16 90.5t16 90.5t45.5 67.5t70.5 42.5t91 14.5q48 0 90 -14.5t73 -42t48.5 -67t17.5 -89.5zM700 1456q0 53 -31.5 83t-80.5 30q-50 0 -81.5 -30t-31.5 -83t28.5 -83 t84.5 -30q49 0 80.5 30t31.5 83z" />
<glyph unicode="&#x2db;" horiz-adv-x="379" d="M180 -238q0 -45 26 -66.5t60 -21.5q25 0 47.5 2.5t36.5 6.5v-113q-26 -8 -58 -12t-61 -4q-100 0 -150 52t-50 142q0 42 15 79.5t38.5 69.5t51.5 58t54 45h129q-139 -133 -139 -238z" />
<glyph unicode="&#x2dc;" d="M766 1243q-40 0 -79.5 17.5t-77.5 39t-73 39t-67 17.5q-45 0 -69 -26.5t-38 -88.5h-104q5 60 21.5 109t43 83.5t63.5 53t83 18.5q42 0 82.5 -17.5t78.5 -38.5t72.5 -38.5t63.5 -17.5q45 0 68 26t38 88h105q-5 -60 -21.5 -108.5t-43 -83t-63.5 -53.5t-83 -19z" />
<glyph unicode="&#x2dd;" d="M223 1268q22 29 45.5 67t47 78.5t44.5 81t37 74.5h199v-21q-16 -27 -47.5 -67.5t-70 -84.5t-79 -85.5t-75.5 -69.5h-101v27zM586 1268q21 29 45 67t47.5 78.5t44.5 81t37 74.5h198v-21q-16 -27 -47.5 -67.5t-70 -84.5t-79 -85.5t-75.5 -69.5h-100v27z" />
<glyph unicode="&#x2f3;" horiz-adv-x="682" d="M567 -338q0 -51 -17.5 -91.5t-48 -68.5t-72.5 -42.5t-91 -14.5q-50 0 -91 14.5t-70.5 42.5t-45.5 67.5t-16 90.5t16 90.5t45.5 67.5t70.5 42.5t91 14.5q48 0 90 -14.5t73 -42t48.5 -67t17.5 -89.5zM451 -340q0 53 -32 83t-81 30q-50 0 -81.5 -30t-31.5 -83t28.5 -83 t84.5 -30q49 0 81 30t32 83z" />
<glyph unicode="&#x300;" horiz-adv-x="0" d="M-487 1241h-121q-35 28 -75.5 69.5t-79 85.5t-70.5 84.5t-48 67.5v21h219q16 -35 37.5 -75t44.5 -80.5t47 -78.5t46 -67v-27z" />
<glyph unicode="&#x301;" horiz-adv-x="0" d="M-696 1268q21 29 45 67t47 78.5t44.5 80.5t37.5 75h219v-21q-16 -27 -47.5 -67.5t-70 -84.5t-79.5 -85.5t-75 -69.5h-121v27z" />
<glyph unicode="&#x303;" horiz-adv-x="0" d="M-446 1243q-40 0 -79.5 17.5t-77.5 39t-73.5 39t-66.5 17.5q-45 0 -69 -26.5t-38 -88.5h-104q5 60 21.5 108.5t43 83t63.5 53.5t83 19q41 0 81.5 -17.5t79 -38.5t73 -38.5t63.5 -17.5q45 0 68 26t38 88h104q-5 -60 -21.5 -108.5t-43 -83t-63 -53.5t-82.5 -19z" />
<glyph unicode="&#x309;" horiz-adv-x="0" d="M-391 1491q0 -39 -13.5 -68t-36 -49.5t-52.5 -34t-64 -20.5l-10 -111h-113l-14 176q37 6 67 14t51 20t32.5 28.5t11.5 40.5t-10.5 40t-28.5 25.5t-43 13t-54 3.5q-28 0 -54 -1.5t-42 -4.5v108q16 3 41 5.5t66 2.5q133 0 199.5 -45.5t66.5 -142.5z" />
<glyph unicode="&#x30f;" horiz-adv-x="0" d="M-326 1241h-100q-35 28 -75.5 69.5t-79 85.5t-70 84.5t-47.5 67.5v21h198q16 -35 37 -75t44.5 -80.5t47.5 -78.5t45 -67v-27zM-688 1241h-100q-35 28 -76 69.5t-79.5 85.5t-70 84.5t-47.5 67.5v21h199q16 -35 37 -75t44.5 -80.5t47.5 -78.5t45 -67v-27z" />
<glyph unicode="&#x323;" horiz-adv-x="0" d="M-719 -246q0 60 31 87.5t76 27.5q43 0 74.5 -27.5t31.5 -87.5q0 -29 -8.5 -50.5t-23 -35.5t-34 -21t-40.5 -7q-45 0 -76 27.5t-31 86.5z" />
<glyph unicode="&#x384;" d="M504 1268q10 30 20 68.5t19.5 79t17.5 80.5t12 73h199v-21q-6 -24 -22.5 -63t-39 -82.5t-48.5 -86.5t-50 -75h-108v27z" />
<glyph unicode="&#x385;" d="M510 1415q11 30 23.5 67.5t24.5 77t23 80t19 76.5h207v-20q-18 -32 -42 -70.5t-52 -78.5t-58.5 -80.5t-62.5 -77.5h-82v26zM276 1395q0 54 28 78t69 24q19 0 36.5 -6t30.5 -18.5t21 -31.5t8 -46q0 -53 -29 -78t-67 -25q-41 0 -69 25t-28 78zM713 1395q0 54 28 78t68 24 q19 0 36.5 -6t30.5 -18.5t21 -31.5t8 -46q0 -53 -29 -78t-67 -25q-40 0 -68 25t-28 78z" />
<glyph unicode="&#x386;" horiz-adv-x="1245" d="M0 0zM1055 0l-160 453h-545l-162 -453h-188l537 1468h170l538 -1468h-190zM836 618l-148 424q-6 18 -14.5 44t-17.5 56t-18 62.5t-17 63.5q-7 -31 -16 -64t-18 -63.5t-17.5 -56t-14.5 -42.5l-145 -424h426zM-23 1163q10 30 20 68.5t19.5 79t17.5 80.5t12 73h199v-21 q-6 -24 -22.5 -63t-39 -82.5t-48.5 -86.5t-50 -75h-108v27z" />
<glyph unicode="&#x387;" horiz-adv-x="549" d="M147 723q0 38 10 64.5t27 43t40 24t50 7.5q26 0 49.5 -7.5t40.5 -24t27 -43t10 -64.5q0 -37 -10 -63t-27 -43t-40.5 -25t-49.5 -8q-27 0 -50 8t-40 25t-27 43t-10 63z" />
<glyph unicode="&#x388;" horiz-adv-x="1225" d="M0 0zM1101 0h-759v1462h759v-164h-573v-452h535v-162h-535v-520h573v-164zM-25 1163q10 30 20 68.5t19.5 79t17.5 80.5t12 73h199v-21q-6 -24 -22.5 -63t-39 -82.5t-48.5 -86.5t-50 -75h-108v27z" />
<glyph unicode="&#x389;" horiz-adv-x="1559" d="M0 0zM1360 0h-186v682h-666v-682h-186v1462h186v-616h666v616h186v-1462zM-25 1163q10 30 20 68.5t19.5 79t17.5 80.5t12 73h199v-21q-6 -24 -22.5 -63t-39 -82.5t-48.5 -86.5t-50 -75h-108v27z" />
<glyph unicode="&#x38a;" horiz-adv-x="946" d="M0 0zM864 0h-530v102l172 41v1176l-172 41v102h530v-102l-172 -41v-1176l172 -41v-102zM-25 1163q10 30 20 68.5t19.5 79t17.5 80.5t12 73h199v-21q-6 -24 -22.5 -63t-39 -82.5t-48.5 -86.5t-50 -75h-108v27z" />
<glyph unicode="&#x38c;" horiz-adv-x="1602" d="M0 0zM1475 733q0 -169 -40.5 -308t-120.5 -238t-198.5 -153t-273.5 -54q-163 0 -282.5 54t-198 153t-116.5 238.5t-38 309.5t38 308.5t117 236.5t199 151.5t283 53.5q155 0 272.5 -53.5t197.5 -152t120.5 -237t40.5 -309.5zM404 733q0 -137 26 -246.5t79.5 -186t136 -117 t196.5 -40.5t196.5 40.5t136 117t78.5 186t25 246.5q0 138 -25 247t-78 184.5t-135 116t-196 40.5t-197 -40.5t-137 -116t-80 -184.5t-26 -247zM-25 1163q10 30 20 68.5t19.5 79t17.5 80.5t12 73h199v-21q-6 -24 -22.5 -63t-39 -82.5t-48.5 -86.5t-50 -75h-108v27z" />
<glyph unicode="&#x38e;" horiz-adv-x="1364" d="M0 0zM824 723l340 739h200l-446 -893v-569h-187v559l-446 903h203zM-25 1163q10 30 20 68.5t19.5 79t17.5 80.5t12 73h199v-21q-6 -24 -22.5 -63t-39 -82.5t-48.5 -86.5t-50 -75h-108v27z" />
<glyph unicode="&#x38f;" horiz-adv-x="1610" d="M0 0zM852 1321q-114 0 -196 -34t-135 -98.5t-78 -157.5t-25 -210q0 -100 17.5 -193.5t58 -179t106 -161t160.5 -140.5v-147h-592v164h354q-64 48 -119.5 115.5t-95.5 151.5t-63 183.5t-23 210.5q0 150 40.5 272t120.5 208t198 133t272 47q155 0 272.5 -47t197.5 -133 t120.5 -208t40.5 -272q0 -111 -23 -210.5t-63 -183.5t-95 -151.5t-120 -115.5h354v-164h-592v147q95 65 160.5 140.5t106 161t58 179t17.5 193.5q0 117 -25 210t-78 157.5t-135 98.5t-196 34zM-25 1163q10 30 20 68.5t19.5 79t17.5 80.5t12 73h199v-21q-6 -24 -22.5 -63 t-39 -82.5t-48.5 -86.5t-50 -75h-108v27z" />
<glyph unicode="&#x390;" horiz-adv-x="670" d="M0 0zM346 1096v-772q0 -97 31.5 -146t103.5 -49q18 0 40.5 2t43.5 5t39 7t27 7v-138q-13 -6 -33.5 -12t-44.5 -10.5t-50 -7t-50 -2.5q-62 0 -115 16t-91.5 55t-60.5 105.5t-22 167.5v772h182zM206 1415q11 30 23.5 67.5t24.5 77t23 80t19 76.5h207v-20q-18 -32 -42 -70.5 t-52 -78.5t-58.5 -80.5t-62.5 -77.5h-82v26zM-28 1395q0 54 28 78t69 24q19 0 36.5 -6t30.5 -18.5t21 -31.5t8 -46q0 -53 -29 -78t-67 -25q-41 0 -69 25t-28 78zM409 1395q0 54 28 78t68 24q19 0 36.5 -6t30.5 -18.5t21 -31.5t8 -46q0 -53 -29 -78t-67 -25q-40 0 -68 25 t-28 78z" />
<glyph unicode="&#x391;" horiz-adv-x="1245" d="M0 0zM1055 0l-160 453h-545l-162 -453h-188l537 1468h170l538 -1468h-190zM836 618l-148 424q-6 18 -14.5 44t-17.5 56t-18 62.5t-17 63.5q-7 -31 -16 -64t-18 -63.5t-17.5 -56t-14.5 -42.5l-145 -424h426z" />
<glyph unicode="&#x392;" horiz-adv-x="1272" d="M199 0zM199 1462h399q128 0 225.5 -19.5t163 -63t98.5 -114t33 -173.5q0 -62 -19.5 -116t-56.5 -95t-91.5 -68.5t-123.5 -36.5v-10q69 -12 129.5 -34.5t105.5 -62t71 -99.5t26 -146q0 -100 -32.5 -178.5t-94 -133t-149.5 -83.5t-199 -29h-485v1462zM385 842h244 q84 0 141 15t92 44.5t50.5 74t15.5 103.5q0 120 -77 172t-243 52h-223v-461zM385 686v-528h266q88 0 147.5 20t96 56t52.5 86.5t16 111.5q0 56 -16.5 103t-54 80.5t-99.5 52t-154 18.5h-254z" />
<glyph unicode="&#x393;" horiz-adv-x="1006" d="M958 1462v-166h-573v-1296h-186v1462h759z" />
<glyph unicode="&#x394;" horiz-adv-x="1163" d="M1128 125v-125h-1091v133l450 1329h187zM580 1257q-17 -74 -38 -158t-50 -175l-254 -758h686l-252 752q-31 97 -54 181t-38 158z" />
<glyph unicode="&#x395;" horiz-adv-x="1081" d="M199 0zM958 0h-759v1462h759v-164h-573v-452h535v-162h-535v-520h573v-164z" />
<glyph unicode="&#x396;" horiz-adv-x="1104" d="M82 0zM1022 0h-940v145l711 1151h-691v166h899v-145l-710 -1151h731v-166z" />
<glyph unicode="&#x397;" horiz-adv-x="1436" d="M199 0zM1237 0h-186v682h-666v-682h-186v1462h186v-616h666v616h186v-1462z" />
<glyph unicode="&#x398;" horiz-adv-x="1520" d="M492 825h534v-161h-534v161zM1393 733q0 -169 -40.5 -308t-120.5 -238t-198.5 -153t-273.5 -54q-163 0 -282.5 54t-198 153t-116.5 238.5t-38 309.5t38 308.5t117 236.5t199 151.5t283 53.5q155 0 272.5 -53.5t197.5 -152t120.5 -237t40.5 -309.5zM322 733 q0 -137 26 -246.5t79.5 -186t136 -117t196.5 -40.5t196.5 40.5t136 117t78.5 186t25 246.5q0 138 -25 247t-78 184.5t-135 116t-196 40.5t-197 -40.5t-137 -116t-80 -184.5t-26 -247z" />
<glyph unicode="&#x399;" horiz-adv-x="694" d="M82 0zM612 0h-530v102l172 41v1176l-172 41v102h530v-102l-172 -41v-1176l172 -41v-102z" />
<glyph unicode="&#x39a;" horiz-adv-x="1186" d="M199 0zM1186 0h-211l-451 698l-139 -114v-584h-186v1462h186v-731l121 168l452 563h209l-520 -637z" />
<glyph unicode="&#x39b;" horiz-adv-x="1163" d="M1163 0h-198l-293 922q-31 97 -54 181t-38 159q-17 -75 -38 -159t-50 -175l-295 -928h-197l487 1462h187z" />
<glyph unicode="&#x39c;" horiz-adv-x="1782" d="M199 0zM803 0l-443 1280h-8q6 -74 10 -147q4 -63 6.5 -132.5t2.5 -126.5v-874h-172v1462h276l412 -1192h6l414 1192h276v-1462h-186v887q0 52 2 119t5 128q4 71 7 144h-8l-447 -1278h-153z" />
<glyph unicode="&#x39d;" horiz-adv-x="1493" d="M199 0zM1294 0h-215l-719 1210h-8q6 -77 10 -153q4 -65 6.5 -136t2.5 -128v-793h-172v1462h213l716 -1204h7q-3 76 -7 150q-1 32 -2.5 65.5l-3 67t-2 64.5t-0.5 57v800h174v-1462z" />
<glyph unicode="&#x39e;" horiz-adv-x="1087" d="M205 846h678v-162h-678v162zM123 1462h842v-164h-842v164zM1006 164v-164h-924v164h924z" />
<glyph unicode="&#x39f;" horiz-adv-x="1520" d="M125 0zM1393 733q0 -169 -40.5 -308t-120.5 -238t-198.5 -153t-273.5 -54q-163 0 -282.5 54t-198 153t-116.5 238.5t-38 309.5t38 308.5t117 236.5t199 151.5t283 53.5q155 0 272.5 -53.5t197.5 -152t120.5 -237t40.5 -309.5zM322 733q0 -137 26 -246.5t79.5 -186 t136 -117t196.5 -40.5t196.5 40.5t136 117t78.5 186t25 246.5q0 138 -25 247t-78 184.5t-135 116t-196 40.5t-197 -40.5t-137 -116t-80 -184.5t-26 -247z" />
<glyph unicode="&#x3a0;" horiz-adv-x="1415" d="M1217 0h-187v1298h-645v-1298h-186v1462h1018v-1462z" />
<glyph unicode="&#x3a1;" horiz-adv-x="1180" d="M199 0zM1075 1034q0 -91 -27.5 -175t-90.5 -148.5t-166.5 -103t-255.5 -38.5h-150v-569h-186v1462h362q134 0 231 -28.5t160 -83t93 -134.5t30 -182zM385 727h129q93 0 162.5 16t115 51.5t68.5 92t23 137.5q0 142 -82 210.5t-256 68.5h-160v-576z" />
<glyph unicode="&#x3a3;" horiz-adv-x="1090" d="M78 0v152l414 614l-402 549v147h893v-164h-680l389 -530l-409 -604h759v-164h-964z" />
<glyph unicode="&#x3a4;" horiz-adv-x="1063" d="M20 0zM625 0h-187v1298h-418v164h1022v-164h-417v-1298z" />
<glyph unicode="&#x3a5;" horiz-adv-x="1079" d="M0 0zM539 723l340 739h200l-446 -893v-569h-187v559l-446 903h203z" />
<glyph unicode="&#x3a6;" horiz-adv-x="1571" d="M692 1483h187v-180h73q134 0 231 -47t160 -123.5t93 -174.5t30 -200q0 -61 -12 -125.5t-38 -126t-68 -116.5t-102 -96t-139.5 -65t-180.5 -24h-47v-225h-187v225h-47q-101 0 -180.5 24t-139.5 65t-102 96t-68.5 116.5t-38.5 126t-12 125.5q0 102 30.5 200t93.5 174.5 t160 123.5t230 47h74v180zM879 362h26q93 0 162.5 29.5t115 82t68.5 126.5t23 162q0 78 -20.5 147.5t-62 121.5t-105 82t-150.5 30h-57v-781zM692 1143h-57q-87 0 -150.5 -30t-105.5 -82t-62 -121.5t-20 -147.5q0 -88 23 -162t68.5 -126.5t115 -82t162.5 -29.5h26v781z" />
<glyph unicode="&#x3a7;" horiz-adv-x="1120" d="M0 0zM1120 0h-211l-354 635l-367 -635h-188l453 764l-422 698h198l332 -559l334 559h190l-421 -692z" />
<glyph unicode="&#x3a8;" horiz-adv-x="1571" d="M1466 983q0 -61 -12 -124.5t-38 -123t-68 -112.5t-102 -92t-139.5 -62t-180.5 -23h-47v-446h-187v446h-47q-101 0 -180.5 22.5t-139.5 61.5t-102 91t-68.5 111.5t-38.5 122.5t-12 124v483h193v-479q0 -88 23 -158.5t68.5 -119.5t115 -75t162.5 -26h26v858h187v-858h26 q186 0 277.5 99t91.5 276v483h192v-479z" />
<glyph unicode="&#x3a9;" horiz-adv-x="1520" d="M762 1321q-114 0 -196 -34t-135 -98.5t-78 -157.5t-25 -210q0 -100 17.5 -193.5t58 -179t106 -161t160.5 -140.5v-147h-592v164h354q-64 48 -119.5 115.5t-95.5 151.5t-63 183.5t-23 210.5q0 150 40.5 272t120.5 208t198 133t272 47q155 0 272.5 -47t197.5 -133 t120.5 -208t40.5 -272q0 -111 -23 -210.5t-63 -183.5t-95 -151.5t-120 -115.5h354v-164h-592v147q95 65 160.5 140.5t106 161t58 179t17.5 193.5q0 117 -25 210t-78 157.5t-135 98.5t-196 34z" />
<glyph unicode="&#x3aa;" horiz-adv-x="694" d="M64 0zM612 0h-530v102l172 41v1176l-172 41v102h530v-102l-172 -41v-1176l172 -41v-102zM64 1733q0 54 28 78t68 24q39 0 68 -24.5t29 -77.5t-29 -78t-68 -25q-40 0 -68 25t-28 78zM439 1733q0 54 28 78t68 24q19 0 36.5 -6t30.5 -18.5t21 -31.5t8 -46q0 -53 -29 -78 t-67 -25q-40 0 -68 25t-28 78z" />
<glyph unicode="&#x3ab;" horiz-adv-x="1079" d="M0 0zM539 723l340 739h200l-446 -893v-569h-187v559l-446 903h203zM257 1733q0 54 28 78t68 24q39 0 68 -24.5t29 -77.5t-29 -78t-68 -25q-40 0 -68 25t-28 78zM632 1733q0 54 28 78t68 24q19 0 36.5 -6t30.5 -18.5t21 -31.5t8 -46q0 -53 -29 -78t-67 -25q-40 0 -68 25 t-28 78z" />
<glyph unicode="&#x3ac;" horiz-adv-x="1200" d="M113 0zM565 131q76 0 128.5 23.5t85 72.5t48 125t17.5 180v15q0 101 -13.5 179.5t-46 132t-86.5 81t-135 27.5q-135 0 -198.5 -109t-63.5 -313q0 -209 63.5 -311.5t200.5 -102.5zM530 -20q-93 0 -170 36t-132 107.5t-85 177.5t-30 246q0 141 30.5 247.5t87 178.5 t137.5 108.5t181 36.5q112 0 184 -41.5t121 -126.5h12q10 35 26.5 76t41.5 72h143q-11 -33 -20.5 -85t-16 -112.5t-10.5 -123.5t-4 -118v-419q0 -60 25 -85.5t59 -25.5q14 0 32.5 3.5t26.5 6.5v-133q-15 -9 -47.5 -17.5t-66.5 -8.5q-38 0 -69.5 8t-56.5 27.5t-43 51.5 t-30 80h-12q-22 -34 -51.5 -64.5t-68 -53.5t-86.5 -36t-108 -13zM529 1268q10 30 20 68.5t19.5 79t17.5 80.5t12 73h199v-21q-6 -24 -22.5 -63t-39 -82.5t-48.5 -86.5t-50 -75h-108v27z" />
<glyph unicode="&#x3ad;" horiz-adv-x="928" d="M90 0zM668 647v-153h-129q-138 0 -204.5 -45.5t-66.5 -139.5q0 -51 20.5 -85.5t55.5 -55.5t83 -30t103 -9q51 0 97 7.5t86.5 19.5t76 27.5t66.5 31.5v-160q-59 -34 -138 -54.5t-188 -20.5q-113 0 -196 24.5t-137 67.5t-80.5 101.5t-26.5 125.5q0 62 19 106t50.5 75 t72.5 51.5t85 35.5v11q-43 14 -78 35.5t-60.5 52.5t-39.5 71t-14 90q0 70 29 124.5t81.5 91.5t124.5 56t158 19q53 0 98 -4.5t86 -14t79.5 -23.5t78.5 -34l-63 -147q-75 34 -139.5 53t-135.5 19q-108 0 -165.5 -38.5t-57.5 -115.5q0 -45 19.5 -77t55.5 -51.5t86 -28.5 t111 -9h97zM450 1268q10 30 20 68.5t19.5 79t17.5 80.5t12 73h199v-21q-6 -24 -22.5 -63t-39 -82.5t-48.5 -86.5t-50 -75h-108v27z" />
<glyph unicode="&#x3ae;" horiz-adv-x="1206" d="M174 0zM860 -492v1199q0 130 -52.5 195t-164.5 65q-81 0 -136 -26t-88.5 -77t-48 -125t-14.5 -170v-569h-182v1098h148l26 -148h10q25 43 59.5 74.5t75.5 52.5t87 31t94 10q183 0 275.5 -95.5t92.5 -305.5v-1209h-182zM572 1268q10 30 20 68.5t19.5 79t17.5 80.5t12 73 h199v-21q-6 -24 -22.5 -63t-39 -82.5t-48.5 -86.5t-50 -75h-108v27z" />
<glyph unicode="&#x3af;" horiz-adv-x="670" d="M164 0zM346 1096v-772q0 -97 31.5 -146t103.5 -49q18 0 40.5 2t43.5 5t39 7t27 7v-138q-13 -6 -33.5 -12t-44.5 -10.5t-50 -7t-50 -2.5q-62 0 -115 16t-91.5 55t-60.5 105.5t-22 167.5v772h182zM198 1268q10 30 20 68.5t19.5 79t17.5 80.5t12 73h199v-21 q-6 -24 -22.5 -63t-39 -82.5t-48.5 -86.5t-50 -75h-108v27z" />
<glyph unicode="&#x3b0;" horiz-adv-x="1208" d="M164 0zM604 -20q-129 0 -214 40t-135 110t-70.5 164.5t-20.5 203.5v600h182v-590q0 -86 16 -156t49 -119.5t84 -76.5t121 -27q146 0 216.5 116t70.5 363q0 71 -4.5 133.5t-12.5 121t-19.5 116.5t-26.5 119h182q15 -61 27 -118t20 -116.5t12 -124t4 -139.5 q0 -319 -122 -469.5t-359 -150.5zM526 1415q11 30 23.5 67.5t24.5 77t23 80t19 76.5h207v-20q-18 -32 -42 -70.5t-52 -78.5t-58.5 -80.5t-62.5 -77.5h-82v26zM292 1395q0 54 28 78t69 24q19 0 36.5 -6t30.5 -18.5t21 -31.5t8 -46q0 -53 -29 -78t-67 -25q-41 0 -69 25t-28 78 zM729 1395q0 54 28 78t68 24q19 0 36.5 -6t30.5 -18.5t21 -31.5t8 -46q0 -53 -29 -78t-67 -25q-40 0 -68 25t-28 78z" />
<glyph unicode="&#x3b1;" horiz-adv-x="1200" d="M565 131q76 0 128.5 23.5t85 72.5t48 125t17.5 180v15q0 101 -13.5 179.5t-46 132t-86.5 81t-135 27.5q-135 0 -198.5 -109t-63.5 -313q0 -209 63.5 -311.5t200.5 -102.5zM530 -20q-93 0 -170 36t-132 107.5t-85 177.5t-30 246q0 141 30.5 247.5t87 178.5t137.5 108.5 t181 36.5q112 0 184 -41.5t121 -126.5h12q10 35 26.5 76t41.5 72h143q-11 -33 -20.5 -85t-16 -112.5t-10.5 -123.5t-4 -118v-419q0 -60 25 -85.5t59 -25.5q14 0 32.5 3.5t26.5 6.5v-133q-15 -9 -47.5 -17.5t-66.5 -8.5q-38 0 -69.5 8t-56.5 27.5t-43 51.5t-30 80h-12 q-22 -34 -51.5 -64.5t-68 -53.5t-86.5 -36t-108 -13z" />
<glyph unicode="&#x3b2;" horiz-adv-x="1233" d="M631 1567q96 0 177.5 -24.5t140.5 -73.5t92.5 -123t33.5 -172q0 -149 -76 -235.5t-219 -109.5v-6q176 -21 268.5 -122t92.5 -287q0 -108 -31.5 -189t-91.5 -135.5t-146.5 -82t-195.5 -27.5q-96 0 -178 16t-142 47v-535h-182v1588q0 123 34.5 212t95 146.5t144.5 85 t183 27.5zM631 1417q-56 0 -106 -15.5t-87.5 -53.5t-59.5 -101.5t-22 -159.5v-878q32 -18 71 -33t80 -25.5t82 -16t77 -5.5q80 0 135.5 20t90.5 58.5t50.5 94t15.5 126.5q0 80 -26.5 138.5t-74.5 97t-114 57t-145 18.5h-102v152h77q82 0 141.5 20t98.5 56.5t57.5 87.5 t18.5 112q0 63 -19 110t-53 78t-81.5 46.5t-104.5 15.5z" />
<glyph unicode="&#x3b3;" horiz-adv-x="1001" d="M608 18q-22 -62 -39 -130t-29 -135t-18 -130t-6 -115h-190q0 42 7.5 102.5t21 129t32 139t39.5 133.5l-416 1086h189l217 -582q14 -40 29 -86.5t28 -91.5t23 -85t14 -67h6q5 26 15 67t22.5 87.5t26 91.5t24.5 78l199 588h188z" />
<glyph unicode="&#x3b4;" d="M532 938q-56 32 -102.5 69.5t-80 80.5t-52 92t-18.5 106q0 72 25.5 124.5t71.5 87.5t108.5 52t136.5 17q68 0 124.5 -10t104.5 -25.5t88.5 -35t75.5 -38.5l-74 -145q-32 20 -68.5 39t-77 34t-86 24t-96.5 9q-42 0 -72 -11.5t-49.5 -30t-28.5 -43.5t-9 -52q0 -37 13.5 -68 t43.5 -61.5t79 -63t120 -73.5q85 -49 152 -103t113 -117t70.5 -136.5t24.5 -161.5q0 -127 -34.5 -223.5t-98 -162t-152.5 -99t-198 -33.5q-103 0 -190 30.5t-150.5 89t-99 143.5t-35.5 195q0 106 33.5 187.5t90.5 142.5t133.5 102.5t163.5 67.5zM881 481q0 69 -15 124.5 t-43.5 100t-69.5 81t-94 67.5q-58 -16 -121 -45t-115 -78t-86 -121.5t-34 -175.5q0 -66 19 -121.5t55.5 -96t89 -63t119.5 -22.5q142 0 218.5 90t76.5 260z" />
<glyph unicode="&#x3b5;" horiz-adv-x="928" d="M668 647v-153h-129q-138 0 -204.5 -45.5t-66.5 -139.5q0 -51 20.5 -85.5t55.5 -55.5t83 -30t103 -9q51 0 97 7.5t86.5 19.5t76 27.5t66.5 31.5v-160q-59 -34 -138 -54.5t-188 -20.5q-113 0 -196 24.5t-137 67.5t-80.5 101.5t-26.5 125.5q0 62 19 106t50.5 75t72.5 51.5 t85 35.5v11q-43 14 -78 35.5t-60.5 52.5t-39.5 71t-14 90q0 70 29 124.5t81.5 91.5t124.5 56t158 19q53 0 98 -4.5t86 -14t79.5 -23.5t78.5 -34l-63 -147q-75 34 -139.5 53t-135.5 19q-108 0 -165.5 -38.5t-57.5 -115.5q0 -45 19.5 -77t55.5 -51.5t86 -28.5t111 -9h97z" />
<glyph unicode="&#x3b6;" horiz-adv-x="932" d="M174 1403v153h694v-141q-128 -118 -220 -220.5t-155 -192t-101 -166.5t-58 -143.5t-26.5 -122t-6.5 -103.5q0 -89 22.5 -143t64.5 -86t102 -49.5t135 -34.5q71 -15 118.5 -38t76.5 -52.5t41.5 -65.5t12.5 -78q0 -45 -10.5 -89t-27.5 -85t-38.5 -78.5t-43.5 -68.5h-170 q24 32 45.5 68t38.5 72t27 69.5t10 62.5q0 20 -7 38.5t-31 35.5t-69.5 32.5t-122.5 30.5q-89 17 -156.5 50t-113.5 87t-69 130t-23 178q0 148 46 276.5t123 244.5t177.5 224.5t208.5 216.5q-43 -3 -90 -6q-40 -2 -88 -4t-95 -2h-221z" />
<glyph unicode="&#x3b7;" horiz-adv-x="1206" d="M860 -492v1199q0 130 -52.5 195t-164.5 65q-81 0 -136 -26t-88.5 -77t-48 -125t-14.5 -170v-569h-182v1098h148l26 -148h10q25 43 59.5 74.5t75.5 52.5t87 31t94 10q183 0 275.5 -95.5t92.5 -305.5v-1209h-182z" />
<glyph unicode="&#x3b8;" horiz-adv-x="1159" d="M1047 780q0 -188 -26 -336.5t-82 -251.5t-145.5 -157.5t-215.5 -54.5q-118 0 -205.5 54.5t-145.5 157.5t-86 251.5t-28 336.5t25.5 336.5t81 251.5t144 157t214.5 54q118 0 206 -53.5t146.5 -156t87.5 -251t29 -338.5zM578 131q73 0 125 37t86.5 111t52 185.5t20.5 260.5 h-565q2 -147 18.5 -258.5t50.5 -186t86 -112t126 -37.5zM578 1427q-71 0 -122 -34.5t-85 -103t-51.5 -171t-22.5 -239.5h563q-9 273 -75 410.5t-207 137.5z" />
<glyph unicode="&#x3b9;" horiz-adv-x="670" d="M346 1096v-772q0 -97 31.5 -146t103.5 -49q18 0 40.5 2t43.5 5t39 7t27 7v-138q-13 -6 -33.5 -12t-44.5 -10.5t-50 -7t-50 -2.5q-62 0 -115 16t-91.5 55t-60.5 105.5t-22 167.5v772h182z" />
<glyph unicode="&#x3ba;" horiz-adv-x="1016" d="M174 0zM803 0l-340 489l-109 -81v-408h-180v1098h180v-281q0 -60 -2.5 -111t-5.5 -89q-4 -44 -8 -80l131 176l307 385h205l-401 -490l428 -608h-205z" />
<glyph unicode="&#x3bb;" horiz-adv-x="1047" d="M-14 0l440 1075l-53 160q-13 41 -28.5 74.5t-37 58t-52 38t-73.5 13.5q-34 0 -59 -3.5t-45 -8.5v145q26 7 59 12t68 5q74 0 126.5 -21t92 -65.5t71 -112t62.5 -160.5l328 -970q18 -54 41 -82.5t61 -28.5q14 0 33 3.5t27 6.5v-133q-23 -12 -50.5 -19t-64.5 -7 q-39 0 -68.5 8.5t-53 28.5t-42 52t-33.5 78l-135 418q-11 33 -25.5 80t-28 95.5t-24.5 92t-16 68.5h-6q-13 -77 -39.5 -162t-57.5 -164l-229 -575h-188z" />
<glyph unicode="&#x3bc;" horiz-adv-x="1217" d="M356 391q0 -130 53 -195t164 -65q82 0 137 26t88.5 76.5t47.5 124.5t14 170v570h182v-1098h-147l-27 147h-10q-48 -83 -120 -125t-175 -42q-72 0 -125 23t-88 65q1 -38 3 -78q2 -35 2.5 -77.5t0.5 -84.5v-320h-182v1590h182v-707z" />
<glyph unicode="&#x3bd;" horiz-adv-x="1059" d="M0 1098h188l201 -592q12 -33 27.5 -82.5t30.5 -101t27.5 -97.5t17.5 -71h6q90 96 147 198.5t90 218t45.5 246t12.5 281.5h182q0 -163 -18.5 -307t-64.5 -277.5t-123 -260t-194 -253.5h-192z" />
<glyph unicode="&#x3be;" horiz-adv-x="932" d="M803 887v-137h-162q-81 0 -144.5 -24.5t-107 -67t-66 -99t-22.5 -121.5q0 -78 22.5 -126t64.5 -77.5t102 -46.5t135 -34q71 -15 118.5 -38t76.5 -52.5t41.5 -65.5t12.5 -78q0 -45 -10.5 -89t-27.5 -85t-38.5 -78.5t-43.5 -68.5h-170q24 32 45.5 68t38.5 72t27 69.5 t10 62.5q0 20 -7 38.5t-31 35.5t-69.5 32.5t-122.5 30.5q-178 34 -270 133.5t-92 280.5q0 77 23.5 140.5t62.5 113t90 83t106 50.5v12q-101 28 -158 95t-57 184q0 72 22.5 123t62 87.5t93 61t115.5 43.5q-34 -3 -73 -6q-33 -2 -75.5 -4t-88.5 -2h-62v153h641v-141h-55 q-73 0 -145.5 -19t-130 -58t-93 -97.5t-35.5 -136.5q0 -53 16 -93.5t51 -68t92 -41.5t138 -14h150z" />
<glyph unicode="&#x3bf;" d="M113 0zM1069 551q0 -137 -33.5 -243.5t-96 -179t-151.5 -110.5t-200 -38q-103 0 -190 38t-150.5 110.5t-99 179t-35.5 243.5q0 136 33.5 241.5t95.5 178t151.5 110t200.5 37.5q103 0 190 -37.5t150.5 -110t99 -178t35.5 -241.5zM301 551q0 -209 68.5 -314.5t222.5 -105.5 t221.5 105.5t67.5 314.5t-68.5 312.5t-222.5 103.5t-221.5 -103.5t-67.5 -312.5z" />
<glyph unicode="&#x3c0;" horiz-adv-x="1290" d="M1104 129q28 0 51.5 6.5t38.5 14.5v-144q-15 -9 -52 -17.5t-85 -8.5q-113 0 -169.5 66t-56.5 196v702h-403v-944h-182v944h-221v74l137 80h1063v-154h-211v-690q0 -70 23.5 -97.5t66.5 -27.5z" />
<glyph unicode="&#x3c1;" d="M1069 551q0 -137 -31.5 -243.5t-90 -179t-142 -110.5t-187.5 -38q-75 0 -146.5 22.5t-125.5 67.5h-6q1 -43 3 -89q2 -39 2.5 -87.5t0.5 -94.5v-291h-182v1043q0 136 32.5 241.5t92.5 178t144.5 110t189.5 37.5q97 0 178.5 -37.5t141 -110t93 -178t33.5 -241.5zM616 967 q-137 0 -202 -98t-68 -298v-340q54 -51 125.5 -75.5t146.5 -24.5q140 0 201.5 105.5t61.5 314.5t-62.5 312.5t-202.5 103.5z" />
<glyph unicode="&#x3c2;" horiz-adv-x="932" d="M301 518q0 -96 14 -156.5t50.5 -99.5t99.5 -62.5t160 -45.5q71 -15 118.5 -38t76.5 -52.5t41.5 -65.5t12.5 -78q0 -45 -10.5 -89t-27.5 -85t-38.5 -78.5t-43.5 -68.5h-170q24 32 45.5 68t38.5 72t27 69.5t10 62.5q0 20 -7 38.5t-31 35.5t-69.5 32.5t-122.5 30.5 t-143 47.5t-115 91.5t-76.5 149t-27.5 220q0 154 36.5 267t102 187.5t155 111t195.5 36.5q78 0 152.5 -17t124.5 -42l-54 -154q-23 10 -51 19.5t-58 17t-59 12t-55 4.5q-80 0 -137 -28.5t-93.5 -84.5t-53.5 -138t-17 -189z" />
<glyph unicode="&#x3c3;" horiz-adv-x="1204" d="M1069 504q0 -111 -31 -207t-92 -166.5t-151 -110.5t-207 -40q-107 0 -194.5 35t-150 104t-96.5 170.5t-34 234.5q0 156 38.5 265t110.5 178t175 100t231 31h489v-154h-266q37 -41 69.5 -87.5t56.5 -100.5t38 -116t14 -136zM301 524q0 -85 16.5 -157t52 -124.5t90.5 -82 t132 -29.5q76 0 130.5 27.5t90 76.5t52 116t16.5 145q0 144 -39.5 251.5t-114.5 196.5h-59q-95 0 -164.5 -22t-114.5 -71.5t-66.5 -130t-21.5 -196.5z" />
<glyph unicode="&#x3c4;" horiz-adv-x="920" d="M870 1098v-154h-372v-606q0 -59 12.5 -100t35 -66.5t53.5 -37t67 -11.5q18 0 39 1.5t41 4.5t38 6.5t31 7.5v-135q-13 -6 -32.5 -12t-42.5 -11.5t-49.5 -8.5t-53.5 -3q-64 0 -122.5 14.5t-103 53t-70.5 105.5t-26 171v627h-297v74l134 80h718z" />
<glyph unicode="&#x3c5;" horiz-adv-x="1208" d="M604 -20q-129 0 -214 40t-135 110t-70.5 164.5t-20.5 203.5v600h182v-590q0 -86 16 -156t49 -119.5t84 -76.5t121 -27q146 0 216.5 116t70.5 363q0 71 -4.5 133.5t-12.5 121t-19.5 116.5t-26.5 119h182q15 -61 27 -118t20 -116.5t12 -124t4 -139.5q0 -319 -122 -469.5 t-359 -150.5z" />
<glyph unicode="&#x3c6;" horiz-adv-x="1430" d="M614 -492v474q-109 5 -200.5 38.5t-158.5 102t-104.5 175t-37.5 257.5q0 83 16 159t44 145t67 131.5t84 117.5l141 -96q-37 -51 -68.5 -103t-54 -109t-35 -119.5t-12.5 -133.5q0 -111 25.5 -187.5t69.5 -125t102 -72.5t122 -31v606q0 188 82.5 284.5t227.5 96.5 q90 0 163 -40t124 -112t78.5 -172.5t27.5 -222.5q0 -149 -43 -257.5t-115 -180.5t-167 -109t-199 -42v-474h-179zM1128 569q0 98 -15 172t-42 124.5t-63.5 76t-79.5 25.5q-27 0 -51.5 -11.5t-43 -38t-29.5 -70t-11 -108.5v-608q72 7 133.5 36.5t106 83t70 133t25.5 185.5z " />
<glyph unicode="&#x3c7;" horiz-adv-x="1073" d="M188 1102q45 0 81.5 -15.5t65.5 -46.5t53.5 -77t45.5 -107l123 -344l287 586h178l-397 -776l178 -480q14 -38 28.5 -71t33.5 -58.5t45 -40t63 -14.5q26 0 49 2.5t39 5.5v-141q-22 -6 -50.5 -11.5t-68.5 -5.5q-67 0 -114.5 19t-83 54t-61 86t-48.5 116l-131 362l-330 -637 h-194l454 830l-160 446q-27 79 -62.5 123.5t-88.5 44.5q-36 0 -64 -10v143q22 7 53 12t76 5z" />
<glyph unicode="&#x3c8;" horiz-adv-x="1516" d="M854 1554v-1421q78 9 143.5 39t113 84t73.5 132t26 181q0 71 -4 135t-11.5 127t-19.5 128.5t-28 138.5h182q16 -72 28 -137.5t20 -128.5t12 -126t4 -131q0 -157 -43.5 -267t-117 -180t-171.5 -104.5t-207 -41.5v-474h-178v474q-111 4 -205 36.5t-162.5 100.5t-106.5 175 t-38 261v543h182v-551q0 -114 27 -191t72 -125.5t105 -71.5t126 -28v1423h178z" />
<glyph unicode="&#x3c9;" horiz-adv-x="1542" d="M489 -20q-90 0 -160 41t-118 114t-73 174.5t-25 222.5q0 81 7.5 152.5t23 139t39 135t55.5 139.5h186q-32 -73 -55.5 -140t-39 -134.5t-23 -138.5t-7.5 -153q0 -98 14.5 -173t41.5 -125.5t64.5 -76.5t82.5 -26q46 0 80 20.5t56 56.5t33 85t11 106v306h178v-306 q0 -129 49.5 -198.5t130.5 -69.5q45 0 82.5 26t64.5 76.5t41.5 125.5t14.5 173q0 82 -7.5 153t-23 138.5t-39 134.5t-55.5 140h187q32 -72 55.5 -139.5t39 -135t23 -139t7.5 -152.5q0 -121 -25 -222.5t-73 -174.5t-118.5 -114t-160.5 -41q-107 0 -176.5 43.5t-100.5 134.5 h-10q-31 -91 -100.5 -134.5t-176.5 -43.5z" />
<glyph unicode="&#x3ca;" horiz-adv-x="670" d="M21 0zM346 1096v-772q0 -97 31.5 -146t103.5 -49q18 0 40.5 2t43.5 5t39 7t27 7v-138q-13 -6 -33.5 -12t-44.5 -10.5t-50 -7t-50 -2.5q-62 0 -115 16t-91.5 55t-60.5 105.5t-22 167.5v772h182zM21 1395q0 54 28 78t68 24q39 0 68 -24.5t29 -77.5t-29 -78t-68 -25 q-40 0 -68 25t-28 78zM396 1395q0 54 28 78t68 24q19 0 36.5 -6t30.5 -18.5t21 -31.5t8 -46q0 -53 -29 -78t-67 -25q-40 0 -68 25t-28 78z" />
<glyph unicode="&#x3cb;" horiz-adv-x="1208" d="M164 0zM604 -20q-129 0 -214 40t-135 110t-70.5 164.5t-20.5 203.5v600h182v-590q0 -86 16 -156t49 -119.5t84 -76.5t121 -27q146 0 216.5 116t70.5 363q0 71 -4.5 133.5t-12.5 121t-19.5 116.5t-26.5 119h182q15 -61 27 -118t20 -116.5t12 -124t4 -139.5 q0 -319 -122 -469.5t-359 -150.5zM307 1395q0 54 28 78t68 24q39 0 68 -24.5t29 -77.5t-29 -78t-68 -25q-40 0 -68 25t-28 78zM682 1395q0 54 28 78t68 24q19 0 36.5 -6t30.5 -18.5t21 -31.5t8 -46q0 -53 -29 -78t-67 -25q-40 0 -68 25t-28 78z" />
<glyph unicode="&#x3cc;" d="M113 0zM1069 551q0 -137 -33.5 -243.5t-96 -179t-151.5 -110.5t-200 -38q-103 0 -190 38t-150.5 110.5t-99 179t-35.5 243.5q0 136 33.5 241.5t95.5 178t151.5 110t200.5 37.5q103 0 190 -37.5t150.5 -110t99 -178t35.5 -241.5zM301 551q0 -209 68.5 -314.5t222.5 -105.5 t221.5 105.5t67.5 314.5t-68.5 312.5t-222.5 103.5t-221.5 -103.5t-67.5 -312.5zM518 1268q10 30 20 68.5t19.5 79t17.5 80.5t12 73h199v-21q-6 -24 -22.5 -63t-39 -82.5t-48.5 -86.5t-50 -75h-108v27z" />
<glyph unicode="&#x3cd;" horiz-adv-x="1208" d="M164 0zM604 -20q-129 0 -214 40t-135 110t-70.5 164.5t-20.5 203.5v600h182v-590q0 -86 16 -156t49 -119.5t84 -76.5t121 -27q146 0 216.5 116t70.5 363q0 71 -4.5 133.5t-12.5 121t-19.5 116.5t-26.5 119h182q15 -61 27 -118t20 -116.5t12 -124t4 -139.5 q0 -319 -122 -469.5t-359 -150.5zM520 1268q10 30 20 68.5t19.5 79t17.5 80.5t12 73h199v-21q-6 -24 -22.5 -63t-39 -82.5t-48.5 -86.5t-50 -75h-108v27z" />
<glyph unicode="&#x3ce;" horiz-adv-x="1542" d="M113 0zM489 -20q-90 0 -160 41t-118 114t-73 174.5t-25 222.5q0 81 7.5 152.5t23 139t39 135t55.5 139.5h186q-32 -73 -55.5 -140t-39 -134.5t-23 -138.5t-7.5 -153q0 -98 14.5 -173t41.5 -125.5t64.5 -76.5t82.5 -26q46 0 80 20.5t56 56.5t33 85t11 106v306h178v-306 q0 -129 49.5 -198.5t130.5 -69.5q45 0 82.5 26t64.5 76.5t41.5 125.5t14.5 173q0 82 -7.5 153t-23 138.5t-39 134.5t-55.5 140h187q32 -72 55.5 -139.5t39 -135t23 -139t7.5 -152.5q0 -121 -25 -222.5t-73 -174.5t-118.5 -114t-160.5 -41q-107 0 -176.5 43.5t-100.5 134.5 h-10q-31 -91 -100.5 -134.5t-176.5 -43.5zM699 1268q10 30 20 68.5t19.5 79t17.5 80.5t12 73h199v-21q-6 -24 -22.5 -63t-39 -82.5t-48.5 -86.5t-50 -75h-108v27z" />
<glyph unicode="&#x3d1;" horiz-adv-x="1229" d="M874 977q-13 108 -41.5 193t-67 143t-84 88.5t-93.5 30.5q-76 0 -119 -44t-43 -116q0 -56 23 -108.5t76 -93.5t138.5 -66.5t210.5 -26.5zM1065 840q2 -22 3 -51t1 -60q0 -159 -32 -296t-96.5 -237.5t-162.5 -158t-229 -57.5q-111 0 -184 27.5t-116 75t-60 110t-17 131.5 q0 40 5 86.5t10.5 91t10.5 82t5 61.5q0 45 -15.5 61.5t-46.5 16.5q-24 0 -51 -7.5t-43 -17.5l-37 127q37 17 87 30t104 13q50 0 84.5 -14t56.5 -39t31.5 -59t9.5 -74q0 -35 -5 -78t-10.5 -89.5t-10.5 -95t-5 -93.5q0 -42 10.5 -79t34.5 -64t63 -42.5t97 -15.5q164 0 246 153 t82 457q0 23 -1 54t-3 51q-174 2 -295 39.5t-196 97.5t-108.5 137t-33.5 158q0 67 19.5 123t60 97t104 64t152.5 23q104 0 184.5 -42t139 -120t96 -189.5t55.5 -250.5h143v-137h-137z" />
<glyph unicode="&#x3d2;" horiz-adv-x="1106" d="M541 731q25 75 55.5 159t62 164t61.5 148.5t54 112.5q22 40 45.5 70.5t50 50t58.5 29.5t73 10q35 0 56.5 -4.5t38.5 -12.5v-145q-13 3 -29 5.5t-29 2.5q-11 0 -25 -3.5t-30 -15t-33.5 -32.5t-36.5 -56q-13 -24 -33 -66.5t-45 -97.5t-52 -119t-54 -130.5t-52 -133 t-44 -126.5v-541h-187v559l-446 903h203z" />
<glyph unicode="&#x3d6;" horiz-adv-x="1696" d="M553 -20q-182 0 -279.5 117t-97.5 360q0 57 9 119.5t25 125.5t37.5 124.5t47.5 117.5h-277v74l134 80h1480v-154h-243q24 -56 43 -117.5t32.5 -124.5t21 -125.5t7.5 -119.5q0 -243 -98 -360t-279 -117q-106 0 -175.5 43.5t-100.5 134.5h-11q-31 -91 -100.5 -134.5 t-175.5 -43.5zM473 944q-22 -54 -42 -113t-35.5 -119.5t-24.5 -121.5t-9 -119q0 -98 14.5 -163.5t41.5 -104.5t64.5 -55.5t82.5 -16.5q46 0 80 20.5t56 56.5t33 85t11 106v176h179v-176q0 -130 49 -199t131 -69q45 0 82.5 16.5t64.5 55.5t41.5 104.5t14.5 163.5 q0 58 -7.5 119t-20 121.5t-30.5 119.5t-39 113h-737z" />
<glyph unicode="&#x400;" horiz-adv-x="1081" d="M199 0zM958 0h-759v1462h759v-164h-573v-452h535v-162h-535v-520h573v-164zM713 1579h-120q-35 28 -76 69.5t-79.5 85.5t-70 84.5t-47.5 67.5v21h219q16 -34 37.5 -74.5t44.5 -81t47 -78.5t45 -67v-27z" />
<glyph unicode="&#x401;" horiz-adv-x="1081" d="M199 0zM958 0h-759v1462h759v-164h-573v-452h535v-162h-535v-520h573v-164zM296 1733q0 54 28 78t68 24q39 0 68 -24.5t29 -77.5t-29 -78t-68 -25q-40 0 -68 25t-28 78zM671 1733q0 54 28 78t68 24q19 0 36.5 -6t30.5 -18.5t21 -31.5t8 -46q0 -53 -29 -78t-67 -25 q-40 0 -68 25t-28 78z" />
<glyph unicode="&#x402;" horiz-adv-x="1440" d="M926 -20q-47 0 -82 6.5t-60 17.5v160q29 -9 63 -15t73 -6q32 0 64 9.5t57.5 35t42 69t16.5 112.5v133q0 115 -52.5 173t-175.5 58h-325v-733h-187v1298h-340v164h945v-164h-418v-401h346q93 0 166 -24.5t123.5 -71.5t77 -116.5t26.5 -158.5v-137q0 -105 -26.5 -182 t-74 -127.5t-113.5 -75t-146 -24.5z" />
<glyph unicode="&#x403;" horiz-adv-x="1006" d="M199 0zM958 1462v-166h-573v-1296h-186v1462h759zM444 1606q22 29 45.5 67t47 78.5t44.5 81t37 74.5h219v-21q-16 -27 -47.5 -67.5t-70 -84.5t-79 -85.5t-75.5 -69.5h-121v27z" />
<glyph unicode="&#x404;" horiz-adv-x="1235" d="M793 1319q-95 0 -175 -32.5t-140 -93.5t-98.5 -148.5t-51.5 -198.5h628v-162h-634q5 -130 37 -230.5t91 -169.5t144.5 -105t198.5 -36q89 0 169 17.5t158 40.5v-162q-39 -15 -78 -26.5t-81.5 -18.5t-91 -10.5t-107.5 -3.5q-164 0 -284 54t-198.5 153t-116.5 238t-38 308 q0 166 43.5 304t128 237t209.5 154t287 55q108 0 206 -22t177 -64l-78 -156q-63 32 -137 55t-168 23z" />
<glyph unicode="&#x405;" horiz-adv-x="1063" d="M104 0zM969 391q0 -97 -34.5 -173.5t-98.5 -129.5t-156 -80.5t-207 -27.5q-111 0 -207.5 17.5t-161.5 51.5v178q34 -16 77.5 -31.5t91.5 -27.5t99 -19.5t101 -7.5q160 0 236.5 60t76.5 172q0 54 -14.5 94t-51 73.5t-97.5 65t-154 68.5q-89 35 -154.5 76.5t-108 93.5 t-63 118t-20.5 150q0 88 32 157t90 116.5t138.5 72.5t177.5 25q119 0 214 -22.5t169 -57.5l-67 -156q-65 29 -147.5 50.5t-170.5 21.5q-122 0 -189 -56.5t-67 -152.5q0 -57 15 -98.5t50 -75t92.5 -63t141.5 -62.5q91 -36 159.5 -74t114.5 -86t69.5 -111t23.5 -149z" />
<glyph unicode="&#x406;" horiz-adv-x="694" d="M82 0zM612 0h-530v102l172 41v1176l-172 41v102h530v-102l-172 -41v-1176l172 -41v-102z" />
<glyph unicode="&#x407;" horiz-adv-x="694" d="M64 0zM612 0h-530v102l172 41v1176l-172 41v102h530v-102l-172 -41v-1176l172 -41v-102zM64 1733q0 54 28 78t68 24q39 0 68 -24.5t29 -77.5t-29 -78t-68 -25q-40 0 -68 25t-28 78zM439 1733q0 54 28 78t68 24q19 0 36.5 -6t30.5 -18.5t21 -31.5t8 -46q0 -53 -29 -78 t-67 -25q-40 0 -68 25t-28 78z" />
<glyph unicode="&#x408;" horiz-adv-x="555" d="M0 0zM-29 -389q-51 0 -89 6.5t-66 17.5v160q34 -9 73 -14.5t84 -5.5q37 0 74.5 9.5t68 34.5t49.5 69t19 112v1462h187v-1442q0 -105 -29.5 -182t-82 -127.5t-126 -75t-162.5 -24.5z" />
<glyph unicode="&#x409;" horiz-adv-x="1864" d="M1759 428q0 -97 -30 -176t-93 -135t-160 -86.5t-231 -30.5h-321v1298h-318q-15 -113 -30.5 -235t-32 -240t-33.5 -224t-33 -187q-20 -103 -46.5 -184t-66 -136.5t-94.5 -85t-133 -29.5q-35 0 -72 7t-65 18v154q23 -13 52 -21t61 -8q48 0 79 31.5t52 80.5t34 107.5 l25 112.5q12 57 28 157t35.5 231t41 288t43.5 327h659v-616h109q152 0 255.5 -33t166.5 -89.5t90.5 -132.5t27.5 -163zM1110 160h119q174 0 256 66t82 202q0 70 -23 118.5t-68.5 78.5t-115 43.5t-162.5 13.5h-88v-522z" />
<glyph unicode="&#x40a;" horiz-adv-x="1909" d="M1804 428q0 -97 -30 -176t-93 -135t-160 -86.5t-231 -30.5h-321v682h-584v-682h-186v1462h186v-616h584v616h186v-616h109q152 0 255.5 -33t166.5 -89.5t90.5 -132.5t27.5 -163zM1155 160h119q174 0 256 66t82 202q0 70 -23 118.5t-68.5 78.5t-115 43.5t-162.5 13.5h-88 v-522z" />
<glyph unicode="&#x40b;" horiz-adv-x="1440" d="M547 897h346q93 0 166 -24.5t123.5 -71.5t77 -116.5t26.5 -158.5v-526h-186v502q0 115 -52.5 173t-175.5 58h-325v-733h-187v1298h-340v164h945v-164h-418v-401z" />
<glyph unicode="&#x40c;" horiz-adv-x="1186" d="M199 0zM1186 0h-219l-582 741v-741h-186v1462h186v-708l565 708h207l-565 -702zM530 1606q22 29 45.5 67t47 78.5t44.5 81t37 74.5h219v-21q-16 -27 -47.5 -67.5t-70 -84.5t-79 -85.5t-75.5 -69.5h-121v27z" />
<glyph unicode="&#x40d;" horiz-adv-x="1493" d="M201 0zM201 1462h174v-800q0 -26 -0.5 -57t-1.5 -64.5l-2 -67t-3 -65.5q-4 -74 -8 -150h7l716 1204h213v-1462h-172v793q0 57 3 128t7 136q4 76 9 153h-8l-719 -1210h-215v1462zM852 1579h-120q-35 28 -76 69.5t-79.5 85.5t-70 84.5t-47.5 67.5v21h219q16 -34 37.5 -74.5 t44.5 -81t47 -78.5t45 -67v-27z" />
<glyph unicode="&#x40e;" horiz-adv-x="1198" d="M25 0zM1198 1462l-428 -1030q-38 -93 -79.5 -175t-97.5 -143.5t-134 -97.5t-189 -36q-51 0 -96 7.5t-82 22.5v185q37 -20 81.5 -32.5t96.5 -12.5q53 0 94 11.5t74 38t61 69.5t56 106l-530 1087h204l383 -809q5 -10 10 -22t9.5 -25t9 -24.5t8.5 -20.5h2q3 9 8.5 24.5 t11 32t11 31t8.5 21.5l311 792h197zM1008 1897q-6 -78 -30.5 -137t-71 -99.5t-117 -61t-170.5 -20.5q-103 0 -173 19.5t-114 59.5t-64.5 99.5t-25.5 139.5h170q5 -57 18.5 -93.5t38.5 -57t63 -28.5t91 -8q44 0 80.5 9.5t63.5 31t44 57.5t23 89h174z" />
<glyph unicode="&#x40f;" horiz-adv-x="1415" d="M1217 0h-422v-385h-177v385h-419v1462h186v-1296h645v1296h187v-1462z" />
<glyph unicode="&#x410;" horiz-adv-x="1245" d="M0 0zM1055 0l-160 453h-545l-162 -453h-188l537 1468h170l538 -1468h-190zM836 618l-148 424q-6 18 -14.5 44t-17.5 56t-18 62.5t-17 63.5q-7 -31 -16 -64t-18 -63.5t-17.5 -56t-14.5 -42.5l-145 -424h426z" />
<glyph unicode="&#x411;" horiz-adv-x="1180" d="M1075 428q0 -97 -30 -176t-93 -135t-160 -86.5t-231 -30.5h-362v1462h788v-164h-602v-452h150q152 0 255.5 -33t166.5 -89.5t90.5 -132.5t27.5 -163zM385 160h160q174 0 256 66t82 202q0 70 -23 118.5t-68.5 78.5t-115 43.5t-162.5 13.5h-129v-522z" />
<glyph unicode="&#x412;" horiz-adv-x="1272" d="M199 0zM199 1462h399q128 0 225.5 -19.5t163 -63t98.5 -114t33 -173.5q0 -62 -19.5 -116t-56.5 -95t-91.5 -68.5t-123.5 -36.5v-10q69 -12 129.5 -34.5t105.5 -62t71 -99.5t26 -146q0 -100 -32.5 -178.5t-94 -133t-149.5 -83.5t-199 -29h-485v1462zM385 842h244 q84 0 141 15t92 44.5t50.5 74t15.5 103.5q0 120 -77 172t-243 52h-223v-461zM385 686v-528h266q88 0 147.5 20t96 56t52.5 86.5t16 111.5q0 56 -16.5 103t-54 80.5t-99.5 52t-154 18.5h-254z" />
<glyph unicode="&#x413;" horiz-adv-x="1006" d="M199 0zM958 1462v-166h-573v-1296h-186v1462h759z" />
<glyph unicode="&#x414;" horiz-adv-x="1331" d="M1290 -385h-176v385h-924v-385h-176v551h113q47 85 90 185t81.5 208.5t71 223.5t56.5 231t38.5 229.5t18.5 218.5h613v-1296h194v-551zM909 166v1130h-262q-4 -76 -19.5 -168.5t-38.5 -193.5t-53.5 -205.5t-65.5 -204.5t-73.5 -191.5t-77.5 -166.5h590z" />
<glyph unicode="&#x415;" horiz-adv-x="1081" d="M199 0zM958 0h-759v1462h759v-164h-573v-452h535v-162h-535v-520h573v-164z" />
<glyph unicode="&#x416;" horiz-adv-x="1669" d="M549 754l-531 708h205l522 -708v708h179v-708l522 708h205l-531 -708l545 -754h-211l-530 741v-741h-179v741l-530 -741h-211z" />
<glyph unicode="&#x417;" horiz-adv-x="1116" d="M977 1120q0 -73 -25.5 -133t-71 -104t-108 -72.5t-137.5 -40.5v-6q87 -11 156 -39.5t116 -73t72 -104t25 -131.5q0 -96 -33.5 -176t-101.5 -138t-170.5 -90t-239.5 -32q-110 0 -206 17t-181 62v170q43 -23 91 -41t97.5 -30t99 -18.5t95.5 -6.5q178 0 266 74t88 209 t-103.5 199.5t-289.5 64.5h-191v151h176q92 0 163 19.5t119.5 55.5t73.5 86.5t25 111.5q0 54 -18.5 95.5t-52.5 70.5t-81.5 44t-105.5 15q-110 0 -194.5 -33.5t-159.5 -87.5l-92 125q38 31 87 58t107 47.5t123.5 32.5t136.5 12q109 0 192 -27t139.5 -75.5t85 -115 t28.5 -145.5z" />
<glyph unicode="&#x418;" horiz-adv-x="1493" d="M201 1462h174v-800q0 -26 -0.5 -57t-1.5 -64.5l-2 -67t-3 -65.5q-4 -74 -8 -150h7l716 1204h213v-1462h-172v793q0 57 3 128t7 136q4 76 9 153h-8l-719 -1210h-215v1462z" />
<glyph unicode="&#x419;" horiz-adv-x="1493" d="M201 0zM201 1462h174v-800q0 -26 -0.5 -57t-1.5 -64.5l-2 -67t-3 -65.5q-4 -74 -8 -150h7l716 1204h213v-1462h-172v793q0 57 3 128t7 136q4 76 9 153h-8l-719 -1210h-215v1462zM1110 1897q-6 -78 -30.5 -137t-71 -99.5t-117 -61t-170.5 -20.5q-103 0 -173 19.5 t-114 59.5t-64.5 99.5t-25.5 139.5h170q5 -57 18.5 -93.5t38.5 -57t63 -28.5t91 -8q44 0 80.5 9.5t63.5 31t44 57.5t23 89h174z" />
<glyph unicode="&#x41a;" horiz-adv-x="1186" d="M1186 0h-219l-582 741v-741h-186v1462h186v-708l565 708h207l-565 -702z" />
<glyph unicode="&#x41b;" horiz-adv-x="1370" d="M1171 0h-186v1298h-379q-15 -113 -30.5 -235t-32 -240t-33.5 -224t-33 -187q-20 -103 -46.5 -184t-66 -136.5t-94.5 -85t-133 -29.5q-35 0 -72 7t-65 18v154q23 -13 52 -21t61 -8q48 0 79 31.5t52 80.5t34 107.5l25 112.5q12 57 28 157t35.5 231t41 288t43.5 327h720 v-1462z" />
<glyph unicode="&#x41c;" horiz-adv-x="1782" d="M199 0zM803 0l-443 1280h-8q6 -74 10 -147q4 -63 6.5 -132.5t2.5 -126.5v-874h-172v1462h276l412 -1192h6l414 1192h276v-1462h-186v887q0 52 2 119t5 128q4 71 7 144h-8l-447 -1278h-153z" />
<glyph unicode="&#x41d;" horiz-adv-x="1436" d="M199 0zM1237 0h-186v682h-666v-682h-186v1462h186v-616h666v616h186v-1462z" />
<glyph unicode="&#x41e;" horiz-adv-x="1520" d="M125 0zM1393 733q0 -169 -40.5 -308t-120.5 -238t-198.5 -153t-273.5 -54q-163 0 -282.5 54t-198 153t-116.5 238.5t-38 309.5t38 308.5t117 236.5t199 151.5t283 53.5q155 0 272.5 -53.5t197.5 -152t120.5 -237t40.5 -309.5zM322 733q0 -137 26 -246.5t79.5 -186 t136 -117t196.5 -40.5t196.5 40.5t136 117t78.5 186t25 246.5q0 138 -25 247t-78 184.5t-135 116t-196 40.5t-197 -40.5t-137 -116t-80 -184.5t-26 -247z" />
<glyph unicode="&#x41f;" horiz-adv-x="1415" d="M199 0zM1217 0h-187v1298h-645v-1298h-186v1462h1018v-1462z" />
<glyph unicode="&#x420;" horiz-adv-x="1180" d="M199 0zM1075 1034q0 -91 -27.5 -175t-90.5 -148.5t-166.5 -103t-255.5 -38.5h-150v-569h-186v1462h362q134 0 231 -28.5t160 -83t93 -134.5t30 -182zM385 727h129q93 0 162.5 16t115 51.5t68.5 92t23 137.5q0 142 -82 210.5t-256 68.5h-160v-576z" />
<glyph unicode="&#x421;" horiz-adv-x="1235" d="M125 0zM793 1319q-107 0 -194 -40.5t-148.5 -116.5t-95 -185t-33.5 -246q0 -141 29.5 -250.5t88.5 -184.5t147 -114t206 -39q89 0 169 17.5t158 40.5v-162q-39 -15 -78 -26.5t-81.5 -18.5t-91 -10.5t-107.5 -3.5q-164 0 -284 54t-198.5 153t-116.5 238t-38 308 q0 166 43.5 304t128 237t209.5 154t287 55q108 0 206 -22t177 -64l-78 -156q-63 32 -137 55t-168 23z" />
<glyph unicode="&#x422;" horiz-adv-x="1063" d="M20 0zM625 0h-187v1298h-418v164h1022v-164h-417v-1298z" />
<glyph unicode="&#x423;" horiz-adv-x="1198" d="M1198 1462l-428 -1030q-38 -93 -79.5 -175t-97.5 -143.5t-134 -97.5t-189 -36q-51 0 -96 7.5t-82 22.5v185q37 -20 81.5 -32.5t96.5 -12.5q53 0 94 11.5t74 38t61 69.5t56 106l-530 1087h204l383 -809q5 -10 10 -22t9.5 -25t9 -24.5t8.5 -20.5h2q3 9 8.5 24.5t11 32 t11 31t8.5 21.5l311 792h197z" />
<glyph unicode="&#x424;" horiz-adv-x="1571" d="M104 0zM692 1483h187v-180h73q134 0 231 -47t160 -123.5t93 -174.5t30 -200q0 -61 -12 -125.5t-38 -126t-68 -116.5t-102 -96t-139.5 -65t-180.5 -24h-47v-225h-187v225h-47q-101 0 -180.5 24t-139.5 65t-102 96t-68.5 116.5t-38.5 126t-12 125.5q0 102 30.5 200 t93.5 174.5t160 123.5t230 47h74v180zM879 362h26q93 0 162.5 29.5t115 82t68.5 126.5t23 162q0 78 -20.5 147.5t-62 121.5t-105 82t-150.5 30h-57v-781zM692 1143h-57q-87 0 -150.5 -30t-105.5 -82t-62 -121.5t-20 -147.5q0 -88 23 -162t68.5 -126.5t115 -82t162.5 -29.5 h26v781z" />
<glyph unicode="&#x425;" horiz-adv-x="1120" d="M0 0zM1120 0h-211l-354 635l-367 -635h-188l453 764l-422 698h198l332 -559l334 559h190l-421 -692z" />
<glyph unicode="&#x426;" horiz-adv-x="1434" d="M1217 166h176v-551h-176v385h-1018v1462h186v-1296h645v1296h187v-1296z" />
<glyph unicode="&#x427;" horiz-adv-x="1352" d="M1153 0h-186v598q-115 -44 -212.5 -67t-195.5 -23q-93 0 -166 24.5t-123.5 72t-77 116.5t-26.5 158v583h186v-559q0 -115 52.5 -173t175.5 -58q90 0 182.5 20t204.5 60v710h186v-1462z" />
<glyph unicode="&#x428;" horiz-adv-x="2042" d="M1843 0h-1644v1462h186v-1296h543v1296h186v-1296h543v1296h186v-1462z" />
<glyph unicode="&#x429;" horiz-adv-x="2042" d="M1843 166h176v-551h-176v385h-1644v1462h186v-1296h543v1296h186v-1296h543v1296h186v-1296z" />
<glyph unicode="&#x42a;" horiz-adv-x="1341" d="M1237 428q0 -97 -30 -176t-93 -135t-160 -86.5t-231 -30.5h-363v1298h-340v164h527v-616h149q152 0 255.5 -33t167 -89.5t91 -132.5t27.5 -163zM547 160h160q174 0 255.5 66t81.5 202q0 70 -22.5 118.5t-68.5 78.5t-115 43.5t-162 13.5h-129v-522z" />
<glyph unicode="&#x42b;" horiz-adv-x="1686" d="M1075 428q0 -97 -30 -176t-93 -135t-160 -86.5t-231 -30.5h-362v1462h186v-616h150q152 0 255.5 -33t166.5 -89.5t90.5 -132.5t27.5 -163zM385 160h160q174 0 256 66t82 202q0 70 -23 118.5t-68.5 78.5t-115 43.5t-162.5 13.5h-129v-522zM1300 0v1462h187v-1462h-187z " />
<glyph unicode="&#x42c;" horiz-adv-x="1180" d="M1075 428q0 -97 -30 -176t-93 -135t-160 -86.5t-231 -30.5h-362v1462h186v-616h150q152 0 255.5 -33t166.5 -89.5t90.5 -132.5t27.5 -163zM385 160h160q174 0 256 66t82 202q0 70 -23 118.5t-68.5 78.5t-115 43.5t-162.5 13.5h-129v-522z" />
<glyph unicode="&#x42d;" horiz-adv-x="1217" d="M442 1319q-94 0 -168 -23t-137 -55l-78 156q79 42 177 64t206 22q162 0 284 -54.5t203 -151t122 -229.5t41 -290q0 -179 -41 -323t-123.5 -245t-206 -155.5t-287.5 -54.5q-58 0 -106.5 3.5t-91.5 10.5t-82 18.5t-78 26.5v162q78 -23 158 -40.5t169 -17.5 q237 0 360.5 139.5t129.5 401.5h-629v162h625q-9 111 -44.5 199t-93 149t-136 93t-173.5 32z" />
<glyph unicode="&#x42e;" horiz-adv-x="2077" d="M1950 733q0 -169 -39.5 -308t-117 -238t-192 -153t-264.5 -54q-151 0 -263.5 50t-188.5 141.5t-116 221t-46 289.5h-338v-682h-186v1462h186v-616h342q11 146 53.5 264t118.5 201.5t185.5 128.5t254.5 45q149 0 263.5 -53.5t191.5 -152t116.5 -237t39.5 -309.5zM920 733 q0 -137 24.5 -246.5t76 -186t130 -117t186.5 -40.5q109 0 187.5 40.5t129.5 117t75 186t24 246.5q0 138 -24 247t-74.5 184.5t-129 116t-186.5 40.5q-109 0 -188 -40.5t-130.5 -116t-76 -184.5t-24.5 -247z" />
<glyph unicode="&#x42f;" horiz-adv-x="1208" d="M578 604l-334 -604h-219l381 655q-55 20 -104.5 51t-87 79.5t-59.5 116.5t-22 161q0 198 126.5 298.5t377.5 100.5h373v-1462h-187v604h-245zM823 1303h-188q-74 0 -131.5 -14.5t-97 -45.5t-60 -79.5t-20.5 -116.5q0 -66 19.5 -118.5t58.5 -89.5t98.5 -57t140.5 -20h180 v541z" />
<glyph unicode="&#x430;" horiz-adv-x="1087" d="M94 0zM793 0l-37 152h-8q-33 -45 -66 -77.5t-72 -53.5t-87 -31t-111 -10q-69 0 -127 19.5t-100.5 60t-66.5 102t-24 145.5q0 164 115.5 252t351.5 96l184 7v69q0 67 -14.5 112t-42 72.5t-68 39.5t-92.5 12q-83 0 -154.5 -24t-137.5 -58l-64 137q74 40 165 68t191 28 q102 0 176.5 -20.5t123 -65t72.5 -113.5t24 -167v-752h-131zM459 127q61 0 113 19t90 57.5t59.5 97t21.5 137.5v99l-143 -7q-90 -4 -151 -20t-97.5 -44.5t-52.5 -69t-16 -91.5q0 -92 48.5 -135t127.5 -43z" />
<glyph unicode="&#x431;" horiz-adv-x="1167" d="M117 659q0 181 24.5 321.5t76.5 242t133 164.5t194 88q125 27 246 51.5t223 44.5l33 -160q-50 -8 -111.5 -19t-124 -23t-121 -24t-102.5 -22q-62 -14 -112 -47t-86 -89.5t-56.5 -139t-24.5 -195.5h13q18 29 49 59t73 54.5t95.5 40.5t117.5 16q99 0 174 -36.5t125.5 -102 t75.5 -155.5t25 -198q0 -137 -34.5 -240t-96.5 -172t-149 -103.5t-191 -34.5q-107 0 -193.5 44.5t-148 131t-94.5 213t-33 290.5zM598 131q60 0 109 19.5t84 63.5t54 115.5t19 176.5q0 84 -13 151t-42 114.5t-74 73t-110 25.5q-61 0 -114 -24t-94.5 -58t-70 -70.5 t-41.5 -62.5q0 -100 12.5 -194t45 -167.5t89.5 -118t146 -44.5z" />
<glyph unicode="&#x432;" horiz-adv-x="1161" d="M1014 821q0 -104 -61.5 -162.5t-168.5 -76.5v-7q56 -7 104.5 -25t84 -48.5t56 -76t20.5 -108.5q0 -67 -23.5 -125t-74 -101t-130 -67t-192.5 -24h-455v1098h453q83 0 154 -14t122.5 -46t81 -85.5t29.5 -131.5zM870 330q0 92 -65 128t-193 36h-256v-344h260q56 0 102.5 9 t80 30t52.5 55.5t19 85.5zM840 803q0 77 -54.5 109t-162.5 32h-267v-297h236q62 0 108 7.5t77.5 25.5t47 48t15.5 75z" />
<glyph unicode="&#x433;" horiz-adv-x="819" d="M778 944h-422v-944h-182v1098h604v-154z" />
<glyph unicode="&#x434;" horiz-adv-x="1120" d="M1079 -381h-174v381h-690v-381h-174v535h86q65 95 114.5 206.5t83 233t50.5 249.5t18 255h535v-944h151v-535zM745 154v804h-192q-7 -103 -25 -210.5t-47 -212t-69.5 -201.5t-92.5 -180h426z" />
<glyph unicode="&#x435;" horiz-adv-x="1096" d="M113 0zM608 -20q-110 0 -201 37t-156.5 108t-101.5 176t-36 240q0 136 33 243t93 181.5t143.5 113.5t184.5 39q99 0 178 -35.5t134 -100t84.5 -155t29.5 -200.5v-113h-692q5 -193 81.5 -284t227.5 -91q51 0 94.5 5t84 14.5t78.5 24t77 32.5v-162q-40 -19 -78.5 -33 t-79 -23t-84 -13t-94.5 -4zM563 967q-114 0 -180.5 -78t-77.5 -227h492q0 68 -13.5 124.5t-42 96.5t-72.5 62t-106 22z" />
<glyph unicode="&#x436;" horiz-adv-x="1475" d="M655 565v533h164v-533l416 533h197l-424 -533l462 -565h-206l-445 557v-557h-164v557l-444 -557h-207l463 565l-424 533h197z" />
<glyph unicode="&#x437;" horiz-adv-x="942" d="M369 647q61 0 111 9t86 28.5t55.5 51.5t19.5 77q0 77 -57.5 115.5t-165.5 38.5q-71 0 -135.5 -19t-139.5 -53l-63 147q40 20 78.5 34t79.5 23.5t86 14t98 4.5q86 0 158 -19t124.5 -56t81.5 -91.5t29 -124.5q0 -50 -14 -88.5t-39.5 -68t-60.5 -50t-78 -34.5v-11 q44 -14 85 -36t72.5 -55t50.5 -78t19 -107q0 -67 -26.5 -125.5t-80.5 -101.5t-137 -67.5t-196 -24.5q-109 0 -196.5 17.5t-145.5 51.5v166q31 -16 69 -31.5t81.5 -27.5t92 -19.5t99.5 -7.5q55 0 103 9t83 30t55.5 55.5t20.5 85.5q0 94 -66.5 139.5t-204.5 45.5h-129v153h97z " />
<glyph unicode="&#x438;" horiz-adv-x="1257" d="M346 1098v-668l-12 -252l516 920h233v-1098h-172v647l11 271l-514 -918h-234v1098h172z" />
<glyph unicode="&#x439;" horiz-adv-x="1257" d="M174 0zM346 1098v-668l-12 -252l516 920h233v-1098h-172v647l11 271l-514 -918h-234v1098h172zM1010 1559q-6 -78 -30.5 -137t-71 -99.5t-117 -61t-170.5 -20.5q-103 0 -173 19.5t-114 59.5t-64.5 99.5t-25.5 139.5h170q5 -57 18.5 -93.5t38.5 -57t63 -28.5t91 -8 q44 0 80.5 9.5t63.5 31t44 57.5t23 89h174z" />
<glyph unicode="&#x43a;" horiz-adv-x="1006" d="M762 1098h196l-415 -527l454 -571h-206l-437 557v-557h-180v1098h180v-533z" />
<glyph unicode="&#x43b;" horiz-adv-x="1118" d="M944 0h-182v944h-258q-20 -259 -52 -441t-79.5 -297t-112.5 -167.5t-151 -52.5q-28 0 -52.5 3t-40.5 9v131q23 -6 50 -6q55 0 99.5 58.5t79 179t60 304t43.5 433.5h596v-1098z" />
<glyph unicode="&#x43c;" horiz-adv-x="1470" d="M1296 0h-161v897q-6 -21 -14.5 -49.5t-18.5 -58t-19 -56.5t-16 -45l-264 -688h-135l-265 688q-5 13 -13.5 37.5t-18.5 54t-19 60.5t-16 57v-897h-162v1098h221l267 -697q13 -34 24 -67.5t20.5 -63.5t17 -55t11.5 -41q6 17 13 41.5t16.5 54t20.5 62t24 65.5l270 701h217 v-1098z" />
<glyph unicode="&#x43d;" horiz-adv-x="1257" d="M356 1098v-455h545v455h182v-1098h-182v489h-545v-489h-182v1098h182z" />
<glyph unicode="&#x43e;" d="M113 0zM1069 551q0 -137 -33.5 -243.5t-96 -179t-151.5 -110.5t-200 -38q-103 0 -190 38t-150.5 110.5t-99 179t-35.5 243.5q0 136 33.5 241.5t95.5 178t151.5 110t200.5 37.5q103 0 190 -37.5t150.5 -110t99 -178t35.5 -241.5zM301 551q0 -209 68.5 -314.5t222.5 -105.5 t221.5 105.5t67.5 314.5t-68.5 312.5t-222.5 103.5t-221.5 -103.5t-67.5 -312.5z" />
<glyph unicode="&#x43f;" horiz-adv-x="1217" d="M356 0h-182v1098h868v-1098h-182v944h-504v-944z" />
<glyph unicode="&#x440;" horiz-adv-x="1200" d="M174 0zM670 -20q-59 0 -107 13t-86.5 34.5t-68 50.5t-52.5 61h-12q3 -34 6 -65q2 -26 4 -53.5t2 -43.5v-469h-182v1590h148l26 -148h8q23 35 52 65.5t67.5 53t86.5 36t108 13.5q94 0 171 -36t131.5 -107.5t84.5 -177.5t30 -246q0 -141 -30 -247.5t-84.5 -178.5 t-131.5 -108.5t-171 -36.5zM635 967q-76 0 -128.5 -23t-85 -70t-48 -117t-17.5 -165v-41q0 -101 13.5 -179.5t46 -132t86.5 -81t135 -27.5q135 0 198.5 109t63.5 313q0 208 -63.5 311t-200.5 103z" />
<glyph unicode="&#x441;" horiz-adv-x="948" d="M113 0zM594 -20q-101 0 -189 31.5t-153 100t-102 175t-37 256.5q0 157 38 266.5t104.5 178t155.5 99.5t191 31q78 0 152.5 -17t124.5 -42l-54 -154q-23 10 -51 19.5t-58 17t-59 12t-55 4.5q-157 0 -229 -100.5t-72 -312.5q0 -211 72.5 -308.5t220.5 -97.5 q81 0 146.5 18.5t119.5 43.5v-162q-54 -29 -115.5 -44t-150.5 -15z" />
<glyph unicode="&#x442;" horiz-adv-x="903" d="M862 944h-319v-944h-183v944h-319v154h821v-154z" />
<glyph unicode="&#x443;" horiz-adv-x="1001" d="M10 0zM10 1098h189l215 -613q14 -40 28.5 -84t27 -88t21.5 -85t13 -76h6q5 25 16 68t24.5 91.5t28 95.5t25.5 80l199 611h188l-434 -1241q-28 -81 -60.5 -145.5t-75.5 -109.5t-101 -69.5t-138 -24.5q-52 0 -90 5.5t-65 11.5v145q21 -5 53 -8.5t67 -3.5q48 0 83 11.5 t61 33.5t44.5 54t33.5 73l57 160z" />
<glyph unicode="&#x444;" horiz-adv-x="1427" d="M801 1114q113 -12 207.5 -54.5t162.5 -114t106 -170.5t38 -224t-35.5 -225t-102.5 -172.5t-162 -115.5t-214 -54v-476h-170v476q-114 10 -209.5 53t-164 115t-106.5 172.5t-38 226.5q0 125 35.5 224.5t102 171t163 114t217.5 53.5v442h170v-442zM301 551q0 -187 78 -292 t252 -124v828q-88 -9 -150.5 -39.5t-102.5 -82t-58.5 -124t-18.5 -166.5zM1126 551q0 186 -77.5 288t-247.5 122v-826q172 20 248.5 124.5t76.5 291.5z" />
<glyph unicode="&#x445;" horiz-adv-x="1024" d="M35 0zM408 563l-353 535h207l250 -410l250 410h207l-355 -535l373 -563h-207l-268 436l-270 -436h-207z" />
<glyph unicode="&#x446;" horiz-adv-x="1233" d="M1202 -381h-182v381h-846v1098h182v-944h504v944h182v-944h160v-535z" />
<glyph unicode="&#x447;" horiz-adv-x="1196" d="M336 1098v-410q0 -174 184 -174q45 0 85 7.5t78 21.5t76.5 36t80.5 50v469h182v-1098h-182v489q-44 -30 -84 -54t-82.5 -40t-89.5 -24.5t-105 -8.5q-78 0 -139 23.5t-102 65.5t-62.5 99.5t-21.5 125.5v422h182z" />
<glyph unicode="&#x448;" horiz-adv-x="1780" d="M981 154h442v944h183v-1098h-1432v1098h182v-944h443v944h182v-944z" />
<glyph unicode="&#x449;" horiz-adv-x="1796" d="M1765 -381h-182v381h-1409v1098h182v-944h443v944h182v-944h442v944h183v-944h159v-535z" />
<glyph unicode="&#x44a;" horiz-adv-x="1389" d="M584 647h276q212 0 314 -78t102 -233q0 -77 -23.5 -139t-74 -106t-130 -67.5t-192.5 -23.5h-455v944h-360v154h543v-451zM1098 322q0 49 -16.5 82t-49 53t-80.5 28.5t-112 8.5h-256v-344h260q55 0 101.5 8.5t80.5 29t53 53.5t19 81z" />
<glyph unicode="&#x44b;" horiz-adv-x="1534" d="M356 647h236q212 0 314 -78t102 -233q0 -77 -23.5 -139t-74 -106t-130 -67.5t-192.5 -23.5h-414v1098h182v-451zM1360 0h-182v1098h182v-1098zM356 494v-344h219q56 0 102.5 8.5t80 29t52.5 53.5t19 81q0 49 -16.5 82t-49 53t-80.5 28.5t-112 8.5h-215z" />
<glyph unicode="&#x44c;" horiz-adv-x="1161" d="M356 647h277q212 0 314 -78t102 -233q0 -77 -23.5 -139t-74 -106t-130 -67.5t-192.5 -23.5h-455v1098h182v-451zM356 494v-344h260q56 0 102.5 8.5t80 29t52.5 53.5t19 81q0 49 -16.5 82t-49 53t-80.5 28.5t-112 8.5h-256z" />
<glyph unicode="&#x44d;" horiz-adv-x="946" d="M322 -20q-89 0 -151 15t-116 44v162q54 -25 119.5 -43.5t147.5 -18.5q73 0 131 20t99 62t65 108t28 158h-477v154h475q-13 166 -86 241.5t-213 75.5q-25 0 -54.5 -4.5t-59.5 -12t-58 -17t-51 -19.5l-53 154q24 12 56 23t68 19t75 12.5t77 4.5q102 0 191.5 -31 t155.5 -99.5t104.5 -178t38.5 -266.5q0 -146 -40.5 -252t-110.5 -175t-163 -102.5t-198 -33.5z" />
<glyph unicode="&#x44e;" horiz-adv-x="1657" d="M1544 551q0 -137 -32 -243.5t-92 -179t-145.5 -110.5t-191.5 -38q-98 0 -179 33t-139.5 97.5t-93.5 159.5t-42 219h-273v-489h-182v1098h182v-455h275q10 116 46 204.5t95 148.5t139 91t179 31q98 0 181.5 -37.5t144 -110t94.5 -178t34 -241.5zM817 551q0 -209 64 -314.5 t206 -105.5q143 0 206 105.5t63 314.5t-64 312.5t-207 103.5q-142 0 -205 -103.5t-63 -312.5z" />
<glyph unicode="&#x44f;" horiz-adv-x="1087" d="M233 0h-198l291 461q-45 12 -87 36t-74.5 62t-52.5 92t-20 125q0 78 28 138.5t78 101t119 61.5t152 21h444v-1098h-182v432h-244zM266 772q0 -48 18.5 -83t51 -58t77.5 -34t99 -11h219v358h-254q-107 0 -159 -47.5t-52 -124.5z" />
<glyph unicode="&#x450;" horiz-adv-x="1096" d="M113 0zM608 -20q-110 0 -201 37t-156.5 108t-101.5 176t-36 240q0 136 33 243t93 181.5t143.5 113.5t184.5 39q99 0 178 -35.5t134 -100t84.5 -155t29.5 -200.5v-113h-692q5 -193 81.5 -284t227.5 -91q51 0 94.5 5t84 14.5t78.5 24t77 32.5v-162q-40 -19 -78.5 -33 t-79 -23t-84 -13t-94.5 -4zM563 967q-114 0 -180.5 -78t-77.5 -227h492q0 68 -13.5 124.5t-42 96.5t-72.5 62t-106 22zM678 1241h-120q-35 28 -76 69.5t-79.5 85.5t-70 84.5t-47.5 67.5v21h219q16 -34 37.5 -74.5t44.5 -81t47 -78.5t45 -67v-27z" />
<glyph unicode="&#x451;" horiz-adv-x="1096" d="M113 0zM608 -20q-110 0 -201 37t-156.5 108t-101.5 176t-36 240q0 136 33 243t93 181.5t143.5 113.5t184.5 39q99 0 178 -35.5t134 -100t84.5 -155t29.5 -200.5v-113h-692q5 -193 81.5 -284t227.5 -91q51 0 94.5 5t84 14.5t78.5 24t77 32.5v-162q-40 -19 -78.5 -33 t-79 -23t-84 -13t-94.5 -4zM563 967q-114 0 -180.5 -78t-77.5 -227h492q0 68 -13.5 124.5t-42 96.5t-72.5 62t-106 22zM269 1395q0 54 28 78t68 24q39 0 68 -24.5t29 -77.5t-29 -78t-68 -25q-40 0 -68 25t-28 78zM644 1395q0 54 28 78t68 24q19 0 36.5 -6t30.5 -18.5 t21 -31.5t8 -46q0 -53 -29 -78t-67 -25q-40 0 -68 25t-28 78z" />
<glyph unicode="&#x452;" horiz-adv-x="1206" d="M752 -492q-48 0 -79.5 7t-54.5 18v148q26 -10 53 -15.5t62 -5.5q27 0 50 7.5t40.5 27t27 52t9.5 83.5v836q0 130 -52.5 195t-164.5 65q-81 0 -136 -26t-88.5 -77t-48 -125t-14.5 -170v-528h-182v1237h-156v137h156v182h182v-182h379v-137h-379v-184l-8 -144h10 q25 43 59.5 74.5t75.5 52.5t87 31t94 10q183 0 275.5 -95.5t92.5 -305.5v-834q0 -77 -17 -138.5t-53 -105t-90.5 -67t-129.5 -23.5z" />
<glyph unicode="&#x453;" horiz-adv-x="819" d="M174 0zM778 944h-422v-944h-182v1098h604v-154zM349 1268q22 29 45.5 67t47 78.5t44.5 81t37 74.5h219v-21q-16 -27 -47.5 -67.5t-70 -84.5t-79 -85.5t-75.5 -69.5h-121v27z" />
<glyph unicode="&#x454;" horiz-adv-x="948" d="M594 -20q-101 0 -189 31.5t-153 100t-102 175t-37 256.5q0 157 38 266.5t104.5 178t155.5 99.5t191 31q78 0 152.5 -17t124.5 -42l-54 -154q-23 10 -51 19.5t-58 17t-59 12t-55 4.5q-139 0 -212 -75.5t-87 -241.5h475v-154h-477q9 -184 82 -266t211 -82q81 0 146.5 18.5 t119.5 43.5v-162q-54 -29 -115.5 -44t-150.5 -15z" />
<glyph unicode="&#x455;" horiz-adv-x="924" d="M90 0zM831 301q0 -80 -29 -140t-83.5 -100.5t-131.5 -60.5t-173 -20q-109 0 -187 17.5t-137 51.5v166q31 -16 69 -31.5t80 -27.5t86.5 -19.5t88.5 -7.5q65 0 110.5 11t74 31.5t41.5 50t13 65.5q0 31 -10 56t-36.5 49.5t-72.5 49.5t-118 56t-129.5 61t-97.5 67t-61.5 85.5 t-21.5 115.5q0 70 27.5 124.5t77.5 91.5t120 56t156 19q97 0 177.5 -21t152.5 -55l-63 -147q-65 29 -133.5 50.5t-139.5 21.5q-102 0 -151 -33.5t-49 -95.5q0 -35 11.5 -61t39.5 -49t75 -46.5t117 -52.5q72 -30 128.5 -60t96.5 -67.5t61 -85.5t21 -115z" />
<glyph unicode="&#x456;" horiz-adv-x="530" d="M160 0zM356 0h-182v1098h182v-1098zM160 1395q0 60 30.5 87t75.5 27q22 0 41.5 -6.5t34 -20.5t23 -35.5t8.5 -51.5q0 -58 -31.5 -86.5t-75.5 -28.5q-45 0 -75.5 28t-30.5 87z" />
<glyph unicode="&#x457;" horiz-adv-x="530" d="M0 0zM356 0h-182v1098h182v-1098zM-18 1395q0 54 28 78t68 24q39 0 68 -24.5t29 -77.5t-29 -78t-68 -25q-40 0 -68 25t-28 78zM357 1395q0 54 28 78t68 24q19 0 36.5 -6t30.5 -18.5t21 -31.5t8 -46q0 -53 -29 -78t-67 -25q-40 0 -68 25t-28 78z" />
<glyph unicode="&#x458;" horiz-adv-x="530" d="M0 0zM66 -492q-48 0 -79.5 7t-54.5 18v148q26 -10 53 -15.5t62 -5.5q27 0 50 7.5t40.5 27t27 52t9.5 83.5v1268h182v-1256q0 -77 -17 -138.5t-53 -105t-90.5 -67t-129.5 -23.5zM160 1395q0 60 30.5 87t75.5 27q22 0 41.5 -6.5t34 -20.5t23 -35.5t8.5 -51.5 q0 -58 -31.5 -86.5t-75.5 -28.5q-45 0 -75.5 28t-30.5 87z" />
<glyph unicode="&#x459;" horiz-adv-x="1667" d="M903 647h236q212 0 313.5 -78t101.5 -233q0 -77 -23 -139t-73.5 -106t-130 -67.5t-192.5 -23.5h-414v944h-217q-20 -259 -52 -441t-79.5 -297t-112.5 -167.5t-151 -52.5q-28 0 -52.5 3t-40.5 9v131q23 -6 50 -6q55 0 99.5 58.5t79 179t60 304t43.5 433.5h555v-451z M1376 322q0 49 -16.5 82t-49 53t-80.5 28.5t-112 8.5h-215v-344h219q56 0 102.5 8.5t80 29t52.5 53.5t19 81z" />
<glyph unicode="&#x45a;" horiz-adv-x="1765" d="M356 1098v-455h463v455h182v-451h236q212 0 314 -78t102 -233q0 -77 -23.5 -139t-74 -106t-130 -67.5t-192.5 -23.5h-414v489h-463v-489h-182v1098h182zM1475 322q0 49 -16.5 82t-49 53t-81 28.5t-111.5 8.5h-216v-344h220q55 0 101.5 8.5t80.5 29t53 53.5t19 81z" />
<glyph unicode="&#x45b;" horiz-adv-x="1206" d="M860 0v666q0 130 -52.5 195t-164.5 65q-81 0 -136 -26t-88.5 -77t-48 -125t-14.5 -170v-528h-182v1237h-156v137h156v182h182v-182h379v-137h-379v-184l-8 -144h10q25 43 59.5 74.5t75.5 52.5t87 31t94 10q183 0 275.5 -95.5t92.5 -305.5v-676h-182z" />
<glyph unicode="&#x45c;" horiz-adv-x="1006" d="M174 0zM762 1098h196l-415 -527l454 -571h-206l-437 557v-557h-180v1098h180v-533zM401 1268q22 29 45.5 67t47 78.5t44.5 81t37 74.5h219v-21q-16 -27 -47.5 -67.5t-70 -84.5t-79 -85.5t-75.5 -69.5h-121v27z" />
<glyph unicode="&#x45d;" horiz-adv-x="1257" d="M174 0zM346 1098v-668l-12 -252l516 920h233v-1098h-172v647l11 271l-514 -918h-234v1098h172zM732 1241h-120q-35 28 -76 69.5t-79.5 85.5t-70 84.5t-47.5 67.5v21h219q16 -34 37.5 -74.5t44.5 -81t47 -78.5t45 -67v-27z" />
<glyph unicode="&#x45e;" horiz-adv-x="1001" d="M10 0zM10 1098h189l215 -613q14 -40 28.5 -84t27 -88t21.5 -85t13 -76h6q5 25 16 68t24.5 91.5t28 95.5t25.5 80l199 611h188l-434 -1241q-28 -81 -60.5 -145.5t-75.5 -109.5t-101 -69.5t-138 -24.5q-52 0 -90 5.5t-65 11.5v145q21 -5 53 -8.5t67 -3.5q48 0 83 11.5 t61 33.5t44.5 54t33.5 73l57 160zM894 1559q-6 -78 -30.5 -137t-71 -99.5t-117 -61t-170.5 -20.5q-103 0 -173 19.5t-114 59.5t-64.5 99.5t-25.5 139.5h170q5 -57 18.5 -93.5t38.5 -57t63 -28.5t91 -8q44 0 80.5 9.5t63.5 31t44 57.5t23 89h174z" />
<glyph unicode="&#x45f;" horiz-adv-x="1217" d="M356 154h504v944h182v-1098h-333v-381h-183v381h-352v1098h182v-944z" />
<glyph unicode="&#x460;" horiz-adv-x="2011" d="M1384 1317q-60 0 -107 -23t-89 -55l-76 156q59 42 130.5 64t152.5 22q119 0 210.5 -49.5t154 -141.5t94.5 -224t32 -298q0 -170 -31.5 -314.5t-96 -249.5t-163.5 -164.5t-235 -59.5q-111 0 -196 25t-158 73h-2q-75 -48 -159 -73t-194 -25q-136 0 -235 59.5t-163.5 164.5 t-96 249.5t-31.5 314.5q0 166 32 298t94.5 224t154 141.5t210.5 49.5q81 0 152.5 -22t130.5 -64l-76 -156q-41 32 -88.5 55t-107.5 23q-69 0 -125.5 -35t-96.5 -104t-61.5 -172.5t-21.5 -239.5q0 -141 23 -255.5t69 -196.5t115 -126.5t161 -44.5q57 0 116 18t105 56v445h187 v-445q46 -38 105 -56t118 -18q92 0 161.5 44.5t115.5 126.5t69 196.5t23 255.5q0 136 -22 239.5t-62 172.5t-96.5 104t-125.5 35z" />
<glyph unicode="&#x461;" horiz-adv-x="1647" d="M375 0l-375 1098h188l224 -682q28 -87 47 -165.5t28 -129.5h7q7 22 17.5 51t23.5 61.5t27.5 67t29.5 66.5l119 268l-162 463h188l201 -592q12 -33 27.5 -82.5t30.5 -101t27 -97.5t17 -71h7q90 103 147 207t89.5 217t45 240.5t12.5 279.5h183q0 -163 -18.5 -307.5 t-64.5 -278t-123 -259.5t-194 -253h-192l-119 340q-12 32 -18.5 58.5t-6.5 29.5q-1 -1 -4 -10.5t-7.5 -23t-9.5 -28t-9 -24.5l-152 -342h-231z" />
<glyph unicode="&#x462;" horiz-adv-x="1317" d="M522 846h150q152 0 255.5 -33t166.5 -89.5t90.5 -132.5t27.5 -163q0 -97 -30 -176t-93 -135t-160 -86.5t-231 -30.5h-362v1120h-316v164h316v272h186v-272h377v-164h-377v-274zM522 160h160q174 0 256 66t82 202q0 70 -23 118.5t-68.5 78.5t-115 43.5t-162.5 13.5h-129 v-522z" />
<glyph unicode="&#x463;" horiz-adv-x="1245" d="M739 944h-299v-297h277q211 0 313.5 -78t102.5 -233q0 -77 -23.5 -139t-74 -106t-130 -67.5t-192.5 -23.5h-455v944h-238v154h238v221h182v-221h299v-154zM440 494v-344h260q55 0 102 8.5t80.5 29t52.5 53.5t19 81q0 49 -16.5 82t-49 53t-80.5 28.5t-112 8.5h-256z" />
<glyph unicode="&#x464;" horiz-adv-x="1831" d="M1389 1319q-95 0 -175 -32.5t-140 -93.5t-98.5 -148.5t-51.5 -198.5h628v-162h-634q5 -130 37 -230.5t90.5 -169.5t144.5 -105t199 -36q89 0 169 17.5t158 40.5v-162q-39 -15 -78 -26.5t-82 -18.5t-91.5 -10.5t-106.5 -3.5q-158 0 -275.5 50t-196 142t-119.5 221.5 t-46 288.5h-336v-682h-186v1462h186v-616h342q14 143 63.5 260.5t133 201t200 129.5t265.5 46q108 0 206 -22t177 -64l-78 -156q-63 32 -137.5 55t-167.5 23z" />
<glyph unicode="&#x465;" horiz-adv-x="1462" d="M1108 -20q-97 0 -181.5 29t-149 90.5t-104 158t-46.5 231.5h-271v-489h-182v1098h182v-455h275q12 128 54.5 218.5t107 147.5t147 83t176.5 26q78 0 152.5 -17t124.5 -42l-54 -154q-23 10 -51 19.5t-58 17t-59.5 12t-54.5 4.5q-140 0 -212.5 -75.5t-86.5 -241.5h475v-154 h-477q9 -184 82 -266t211 -82q82 0 147 18.5t119 43.5v-162q-53 -29 -115 -44t-151 -15z" />
<glyph unicode="&#x466;" horiz-adv-x="1327" d="M748 0h-166v682h-127l-258 -682h-197l569 1462h187l571 -1462h-199l-258 682h-122v-682zM516 846h291l-53 143q-18 48 -32 86t-25 71.5t-19.5 66t-15.5 69.5q-9 -37 -17.5 -69.5t-19 -66t-23 -70t-29.5 -81.5z" />
<glyph unicode="&#x467;" horiz-adv-x="1124" d="M678 1098l436 -1098h-188l-187 489h-96v-489h-162v489h-96l-186 -489h-189l436 1098h232zM559 977q-5 -25 -18.5 -67.5t-31 -90.5t-36 -95t-31.5 -81h240q-14 34 -32.5 81.5t-36 95.5t-31 90t-17.5 67h-6z" />
<glyph unicode="&#x468;" horiz-adv-x="1833" d="M1255 0h-165v682h-129l-259 -682h-196l264 682h-385v-682h-186v1462h186v-616h449l241 616h187l571 -1462h-199l-258 682h-121v-682zM1022 846h291l-53 143q-19 48 -33 86t-24.5 71.5t-19 66t-16.5 69.5q-8 -37 -16.5 -69.5t-19 -66t-23 -70t-29.5 -81.5z" />
<glyph unicode="&#x469;" horiz-adv-x="1554" d="M1108 1098l436 -1098h-188l-187 489h-96v-489h-162v489h-96l-186 -489h-189l195 489h-279v-489h-182v1098h182v-455h340l181 455h231zM989 977q-5 -25 -18.5 -67t-31 -90t-36 -95.5t-31.5 -81.5h240q-14 34 -32.5 81.5t-36 95.5t-31 90t-17.5 67h-6z" />
<glyph unicode="&#x46a;" horiz-adv-x="1407" d="M20 0l123 453q24 85 51 153t69 117t104 78t157 35l-368 487v139h1097v-139l-379 -487q97 -6 161 -34t107 -77t70.5 -117.5t51.5 -154.5l122 -453h-190l-123 449q-20 72 -39 119.5t-46 76t-66.5 40t-100.5 11.5h-24v-696h-187v696h-24q-61 0 -100.5 -11.5t-66.5 -40 t-46 -76t-39 -119.5l-123 -449h-191zM702 858l330 440h-657z" />
<glyph unicode="&#x46b;" horiz-adv-x="1264" d="M10 0l123 340q22 61 44 111.5t55 89t84.5 63t134.5 33.5l-306 356v105h975v-105l-311 -356q83 -8 135 -32.5t85.5 -62.5t55.5 -89.5t45 -112.5l123 -340h-186l-123 336q-20 54 -38 90t-42 57.5t-58 30t-87 8.5h-4v-522h-166v522h-4q-53 0 -88 -8.5t-59 -30t-42.5 -57.5 t-38.5 -90l-122 -336h-185zM631 643l252 301h-502z" />
<glyph unicode="&#x46c;" horiz-adv-x="1931" d="M563 0l123 453q19 68 39.5 125.5t48.5 103.5h-389v-682h-186v1462h186v-616h676l-363 477v139h1098v-139l-379 -487q97 -6 161 -34t106.5 -77t70 -117.5t51.5 -154.5l123 -453h-190l-123 449q-20 72 -39 119.5t-46 76t-66.5 40t-100.5 11.5h-25v-696h-186v696h-25 q-60 0 -99.5 -11.5t-66.5 -40t-46 -76t-39 -119.5l-123 -449h-191zM1245 858l330 440h-657z" />
<glyph unicode="&#x46d;" horiz-adv-x="1698" d="M444 0l123 340q16 42 30.5 79.5t33.5 69.5h-275v-489h-182v1098h182v-455h523l-299 350v105h974v-105l-311 -356q83 -8 135 -32.5t85.5 -62.5t56 -89.5t45.5 -112.5l123 -340h-187l-123 336q-20 54 -38 90t-42 57.5t-58 30t-87 8.5h-4v-522h-166v522h-4q-53 0 -87.5 -8.5 t-59 -30t-42.5 -57.5t-38 -90l-123 -336h-185zM1065 643l252 301h-502z" />
<glyph unicode="&#x46e;" horiz-adv-x="1118" d="M481 -20q-71 0 -116 -9t-71 -25t-36 -36.5t-10 -44.5q0 -22 7 -40t25 -31t48.5 -20t77.5 -7q65 0 113.5 2t90 4t82 4t90.5 2q43 0 76 -3.5t57.5 -8.5t42 -12.5t29.5 -14.5v-182q-8 7 -23.5 16t-42.5 17t-65.5 14t-91.5 6q-49 0 -84.5 -1.5t-72.5 -3t-83 -2.5t-116 -1 q-104 0 -172 20.5t-107.5 56.5t-55.5 84t-16 103q0 60 24.5 109t75.5 84t129.5 54t186.5 19q89 0 153 19t104.5 55t59.5 88.5t19 120.5q0 71 -28.5 121.5t-80 82t-124 46t-160.5 14.5h-191v151h176q92 0 163 19.5t119.5 55.5t73.5 86t25 112q0 54 -18.5 95.5t-52.5 70.5 t-81.5 44t-105.5 15q-110 0 -194.5 -33.5t-159.5 -87.5l-92 125q59 48 142 85.5t186 54.5q-24 30 -51.5 62.5t-54.5 64t-52 60.5t-45 52v27h121q51 -34 99.5 -82.5t102.5 -104.5q26 36 55.5 71t63 63t71 45.5t79.5 17.5q31 0 54.5 -4.5t37.5 -9.5v-119q-11 5 -28 8.5 t-34 3.5q-22 0 -46 -11.5t-48 -32t-47 -48.5t-43 -61q82 -13 145 -44.5t105.5 -77.5t64 -105t21.5 -128q0 -74 -25.5 -133.5t-71 -103.5t-108 -72.5t-137.5 -40.5v-6q87 -11 156 -39.5t116 -73t72 -104t25 -131.5q0 -96 -33.5 -176t-99 -138t-163.5 -90t-227 -32z" />
<glyph unicode="&#x46f;" horiz-adv-x="942" d="M719 1362q31 0 54.5 -4.5t37.5 -9.5v-119q-11 5 -27.5 8.5t-33.5 3.5q-21 0 -44 -10.5t-46 -29.5t-45.5 -44.5t-41.5 -56.5q55 -14 99.5 -38.5t76 -59t49 -78.5t17.5 -97q0 -50 -14 -88.5t-39.5 -68t-60.5 -50t-78 -34.5v-11q44 -14 85 -36t72.5 -55t50.5 -78.5 t19 -106.5q0 -68 -26.5 -126t-80.5 -101t-137 -67.5t-196 -24.5q-75 0 -119.5 -7t-68 -20t-31 -32t-7.5 -42q0 -22 7 -39.5t24 -29.5t46 -18.5t73 -6.5q50 0 99.5 1.5t96 3.5t88 3.5t74.5 1.5q66 0 101.5 -11t48.5 -30v-151q-9 10 -26 17.5t-37 12.5t-42 8t-41 3 q-32 0 -74.5 -1.5t-92.5 -3t-105.5 -3t-112.5 -1.5q-88 0 -144 23t-88 58.5t-44 78.5t-12 84q0 47 17 91.5t60 79.5t115 56t182 21q55 0 105 9.5t88 31t60 56t22 85.5q0 94 -66.5 139.5t-204.5 45.5h-129v153h97q61 0 111 9t86 28.5t55.5 51.5t19.5 77q0 77 -57.5 115.5 t-165.5 38.5q-71 0 -135.5 -19t-139.5 -53l-63 147q57 28 110.5 45t118.5 25q-23 28 -47.5 57.5t-48.5 57t-46 52.5t-40 46v27h121q51 -34 100 -82.5t103 -104.5q26 36 55 71t62.5 63t71 45.5t79.5 17.5z" />
<glyph unicode="&#x470;" horiz-adv-x="1571" d="M104 0zM1466 983q0 -61 -12 -124.5t-38 -123t-68 -112.5t-102 -92t-139.5 -62t-180.5 -23h-47v-446h-187v446h-47q-101 0 -180.5 22.5t-139.5 61.5t-102 91t-68.5 111.5t-38.5 122.5t-12 124v483h193v-479q0 -88 23 -158.5t68.5 -119.5t115 -75t162.5 -26h26v858h187 v-858h26q186 0 277.5 99t91.5 276v483h192v-479z" />
<glyph unicode="&#x471;" horiz-adv-x="1516" d="M164 0zM854 1554v-1421q78 9 143.5 39t113 84t73.5 132t26 181q0 71 -4 135t-11.5 127t-19.5 128.5t-28 138.5h182q16 -72 28 -137.5t20 -128.5t12 -126t4 -131q0 -157 -43.5 -267t-117 -180t-171.5 -104.5t-207 -41.5v-474h-178v474q-111 4 -205 36.5t-162.5 100.5 t-106.5 175t-38 261v543h182v-551q0 -114 27 -191t72 -125.5t105 -71.5t126 -28v1423h178z" />
<glyph unicode="&#x472;" horiz-adv-x="1520" d="M1393 733q0 -170 -40.5 -308.5t-120.5 -237.5t-198.5 -153t-273.5 -54q-163 0 -282.5 54t-198 153t-116.5 238.5t-38 309.5t38 308.5t117 236.5t198.5 151.5t283.5 53.5q154 0 272 -53.5t198 -152t120.5 -237t40.5 -309.5zM760 143q106 0 185 35.5t132.5 102.5t82 164 t34.5 219h-870q6 -122 35 -219t82.5 -164t132.5 -102.5t186 -35.5zM762 1321q-105 0 -183 -33.5t-132 -97.5t-84.5 -156t-38.5 -209h868q-8 117 -37.5 209t-82 156t-130 97.5t-180.5 33.5z" />
<glyph unicode="&#x473;" d="M1069 551q0 -137 -33.5 -243.5t-96 -179t-151.5 -110.5t-200 -38q-103 0 -190 38t-150.5 110.5t-99 179t-35.5 243.5q0 136 33.5 241.5t95.5 178t151.5 110t200.5 37.5q103 0 190 -37.5t150.5 -110t99 -178t35.5 -241.5zM592 131q141 0 209 89t78 267h-578 q9 -178 79 -267t212 -89zM590 967q-137 0 -205 -81t-82 -245h574q-13 164 -82 245t-205 81z" />
<glyph unicode="&#x474;" horiz-adv-x="1217" d="M1174 1325q-36 0 -62.5 -18.5t-47.5 -54.5t-39 -87.5t-36 -117.5l-297 -1047h-205l-487 1462h197l295 -927q29 -91 52 -178.5t40 -166.5q14 78 35 172t47 191l141 512q31 113 61.5 191t68.5 127t89.5 70.5t126.5 21.5q35 0 69 -6.5t60 -14.5v-151q-23 9 -49.5 15.5 t-58.5 6.5z" />
<glyph unicode="&#x475;" horiz-adv-x="989" d="M0 1098h188l201 -606q11 -33 27 -86t31.5 -108t28.5 -103.5t18 -73.5h6q4 25 14 72.5t22 101.5t24.5 105.5t21.5 84.5l86 320q25 94 51.5 152.5t60 91.5t77.5 45t104 12q26 0 43 -2.5t34 -7.5v-135q-11 3 -30 5.5t-37 2.5q-47 0 -76 -40t-53 -128l-224 -801h-243z" />
<glyph unicode="&#x476;" horiz-adv-x="1217" d="M0 0zM1174 1325q-36 0 -62.5 -18.5t-47.5 -54.5t-39 -87.5t-36 -117.5l-297 -1047h-205l-487 1462h197l295 -927q29 -91 52 -178.5t40 -166.5q14 78 35 172t47 191l141 512q31 113 61.5 191t68.5 127t89.5 70.5t126.5 21.5q35 0 69 -6.5t60 -14.5v-151q-23 9 -49.5 15.5 t-58.5 6.5zM882 1579h-100q-35 28 -75.5 69.5t-79 85.5t-70 84.5t-47.5 67.5v21h198q16 -35 37 -75t44.5 -80.5t47.5 -78.5t45 -67v-27zM520 1579h-100q-35 28 -76 69.5t-79.5 85.5t-70 84.5t-47.5 67.5v21h199q16 -35 37 -75t44.5 -80.5t47.5 -78.5t45 -67v-27z" />
<glyph unicode="&#x477;" horiz-adv-x="989" d="M0 0zM0 1098h188l201 -606q11 -33 27 -86t31.5 -108t28.5 -103.5t18 -73.5h6q4 25 14 72.5t22 101.5t24.5 105.5t21.5 84.5l86 320q25 94 51.5 152.5t60 91.5t77.5 45t104 12q26 0 43 -2.5t34 -7.5v-135q-11 3 -30 5.5t-37 2.5q-47 0 -76 -40t-53 -128l-224 -801h-243z M778 1241h-100q-35 28 -75.5 69.5t-79 85.5t-70 84.5t-47.5 67.5v21h198q16 -35 37 -75t44.5 -80.5t47.5 -78.5t45 -67v-27zM416 1241h-100q-35 28 -76 69.5t-79.5 85.5t-70 84.5t-47.5 67.5v21h199q16 -35 37 -75t44.5 -80.5t47.5 -78.5t45 -67v-27z" />
</font>
</defs>
</svg>
